Today is a free download without charge Download

Форт Росс: В поисках приключений (Юрий Мороз) [2014, Россия, приключения, фантастика, HDTV 1080i]

Reply to topic
 
Author
Message

Omen ®

Longevity: 8 years 10 months

Posts: 181086

Торрент-статистика

Post 26-May-2016 12:00

[Quote]

Форт Росс: В поисках приключений- -Страна: Россия
Жанр: приключения, фантастика
Год выпуска: 2014
Производство: «Кинокомпания "АТК-Студио"»
Продолжительность: 01:31:59
Оригинальная аудиодорожка: русский
Cубтитры: нет-Режиссер: Юрий Мороз-В ролях:
Максим Матвеев, Анна Старшенбаум, Максим Виноградов (II), Лайа Коста, Кирилл Плетнёв, Хосе Анхель Эхидо, Михаил Горевой, Андрей Мерзликин, Рамон Ланга, Амаду Мамадаков, Максим Важов, Александр Петров (II), Артём Ткаченко, Дмитрий Астрахан, Дмитрий Наумов, Николай Козак, Мария Смольникова, Елена Дробышева, Дмитрий Панфилов, Максим Емельянов, Сергей Легостаев, Олег Ребров, Валентин Цзин-Описание:
Раскрыта одна из главных интриг российской истории! Как вышло, что в XIX веке Россия навсегда лишилась своих земель в Северной Америке? Ведь ей принадлежала огромная территория от Аляски до Северной Калифорнии! В поисках ответа группа тележурналистов — интеллектуал Дмитрий, простодушный Фимка и красавица Марго — путешествуют во времени и пространстве, попадая то в царские дворцы, то в вигвамы индейцев.-Возраст: 6+-Качество: HDTV (1080i)
Формат: TS
Видео кодек: AVC
Аудио кодек: MPEG Audio

Видео: AVC, 1920 х 1080 (16:9), 25,000 кадр/сек, 6 215 Кбит/сек, 0.120 bit/pixel
Аудио: MPEG Audio 2, 48000 Hz, 160 Kbps, 2 канала
-

MediaInfo

General
ID : 16 (0x10)
Complete name : D:\Раздачи\Форт Росс. В поисках приключений HDTV (1080i)\Форт Росс. В поисках приключений HDTV (1080i).ts
Format : MPEG-TS
File size : 4.31 GiB
Duration : 1h 31mn
Overall bit rate mode : Variable
Overall bit rate : 6 708 Kbps
Video
ID : 3408 (0xD50)
Menu ID : 1408 (0x580)
Format : AVC
Format/Info : Advanced Video Codec
Format profile : [email protected]
Format settings, CABAC : Yes
Format settings, ReFrames : 3 frames
Format settings, GOP : M=4, N=32
Codec ID : 27
Duration : 1h 31mn
Bit rate : 6 215 Kbps
Width : 1 920 pixels
Height : 1 080 pixels
Display aspect ratio : 16:9
Frame rate : 25.000 fps
Standard : PAL
Color space : YUV
Chroma subsampling : 4:2:0
Bit depth : 8 bits
Scan type : Interlaced
Scan type, store method : Separated fields
Scan order : Top Field First
Bits/(Pixel*Frame) : 0.120
Stream size : 3.99 GiB (93%)
Color range : Limited
Color primaries : BT.709
Transfer characteristics : BT.709
Matrix coefficients : BT.709
Audio
ID : 4408 (0x1138)
Menu ID : 1408 (0x580)
Format : MPEG Audio
Format version : Version 1
Format profile : Layer 2
Codec ID : 4
Duration : 1h 31mn
Bit rate mode : Constant
Bit rate : 160 Kbps
Channel(s) : 2 channels
Sampling rate : 48.0 KHz
Compression mode : Lossy
Delay relative to video : 102ms
Stream size : 105 MiB (2%)
Language : std
Language, more info : Clean effects

Скриншоты

-Раздаю до первых 5-ти скачавших, на раздачи не возвращаюсь...-
Other forum [Profile] [PM]
Display posts from previous:    
Reply to topic

The time now is: Today 14:32

All times are GMT + 3 Hours



You cannot post new topics in this forum
You cannot reply to topics in this forum
You cannot edit your posts in this forum
You cannot delete your posts in this forum
You cannot vote in polls in this forum
You cannot attach files in this forum
You cannot download files in this forum