Today is a free download without charge Download

Волки и овцы: бе-е-е-зумное превращение (Максим Волков, Андрей Галат) [2016, мультфильм, семейный, комедия, WEB-DLRip-AVC]

Reply to topic
 
Author
Message

Omen ®

Longevity: 7 years 11 months

Posts: 181087

Торрент-статистика

Post 19-May-2016 15:00

[Quote]

Волки и овцы: бе-е-е-зумное превращение
«Ты можешь быть кем угодно. Главное – оставаться собой!»

Страна: Россия
Жанр: мультфильм, семейный, комедия, приключения
Год выпуска: 2016
Продолжительность: 01:24:42
Перевод: Не требуется
Cубтитры: нет
Режиссер: Максим Волков, Андрей Галат
В ролях: Александр Петров, Елизавета Боярская, Сергей Безруков, Екатерина Иванчикова, Юрий Гальцев, Андрей Рожков, Татьяна Шитова, Диомид Виноградов, Андрей Бархударов, Дмитрий Филимонов, Никита Прозоровский, Ирина Виленкина
Описание:
Любимцу стаи, молодому и беззаботному волку Серому невдомек, что скоро он окажется чужим среди своих друзей. Претендуя на роль вожака стаи и на руку (вернее, лапу) и сердце самой красивой волчицы Бьянки, Серый продолжает дурачиться и устраивать розыгрыши над сородичами. Все переворачивается с ног на голову, когда он решает изменить себя с помощью волшебного зелья. Чудо действительно происходит: Серый превращается в барана! Опасаясь за свою, теперь овечью, шкуру, Серый сбегает от волков и поселяется в деревне овец.
Теперь Серому предстоит не только вернуть доверие возлюбленной и стаи, но и свой прежний облик. Но как это сделать, если у тебя есть всего три дня, да еще рога и копыта?
Автор рипа: stalkerok
Сэмпл
Качество видео: WEB-DLRip-AVC [BLUEBIRD / WEB-DL / 1080p]
Формат видео: MKV
Видео: 1166 Кбит/сек, 788*330 (2,40:1), в 24,000 кадра/сек, AVC
Аудио: русский, 64,0 Кбит/сек, 48,0 КГц / 24,0 КГц, 2 канала, AAC (HE-AAC / LC) [iTunes]
Навигация по главам: есть

MediaInfo

Общее
Уникальный идентификатор : 253667137015741862863508332809476280971 (0xBED683754C06279C8D936582FE5E928B)
Полное имя : M:\1WEB-DL\Volki i ovcy be-e-e-zumnoe prevrashhenie\Volki.i.ovcy.bezumnoe.prevrashhenie.2016.WEB-DLRip-AVC.745Mb.stalkerok.new-team.mkv
Формат : Matroska
Версия формата : Version 4 / Version 2
Размер файла : 746 Мбайт
Продолжительность : 1 ч. 24 м.
Общий поток : 1231 Кбит/сек
Название фильма : Волки и овцы: бе-е-е-зумное превращение (2016) (New-Team) (Rip by stalkerok)
Дата кодирования : UTC 2016-05-18 14:35:28
Программа кодирования : mkvmerge v8.6.1 ('Flying') 64bit
Библиотека кодирования : libebml v1.3.3 + libmatroska v1.4.4
Видео
Идентификатор : 1
Формат : AVC
Формат/Информация : Advanced Video Codec
Профиль формата : [email protected]
Параметр CABAC формата : Да
Параметр ReFrames формата : 16 кадров
Идентификатор кодека : V_MPEG4/ISO/AVC
Продолжительность : 1 ч. 24 м.
Битрейт : 1166 Кбит/сек
Ширина : 788 пикселей
Высота : 330 пикселей
Соотношение сторон : 2,40:1
Соотношение сторон в оригинале : 2,40:1
Режим частоты кадров : Постоянный
Частота кадров : 24,000 кадра/сек
Цветовое пространство : YUV
Субдискретизация насыщенности : 4:2:0
Битовая глубина : 8 бит
Тип развёртки : Прогрессивная
Бит/(Пиксели*Кадры) : 0.187
Размер потока : 706 Мбайт (95%)
Заголовок : Волки и овцы: бе-е-е-зумное превращение (2016) (New-Team) (Rip by stalkerok)
Библиотека кодирования : x264 core 148 r2665kMod a01e339
Настройки программы : cabac=1 / ref=16 / deblock=1:-3:-2 / analyse=0x3:0x133 / me=umh / subme=10 / psy=1 / fade_compensate=0.00 / psy_rd=1.00:0.00 / mixed_ref=1 / me_range=32 / chroma_me=1 / trellis=2 / 8x8dct=1 / cqm=0 / deadzone=21,11 / fast_pskip=0 / chroma_qp_offset=-2 / threads=10 / lookahead_threads=2 / sliced_threads=0 / nr=0 / decimate=0 / interlaced=0 / bluray_compat=0 / constrained_intra=0 / fgo=0 / bframes=16 / b_pyramid=2 / b_adapt=2 / b_bias=0 / direct=3 / weightb=1 / open_gop=0 / weightp=2 / keyint=240 / keyint_min=23 / scenecut=40 / intra_refresh=0 / rc_lookahead=60 / rc=2pass / mbtree=0 / bitrate=1166 / ratetol=1.0 / qcomp=0.65 / qpmin=0 / qpmax=69 / qpstep=4 / cplxblur=20.0 / qblur=0.5 / vbv_maxrate=50000 / vbv_bufsize=62500 / nal_hrd=none / filler=0 / ip_ratio=1.30 / pb_ratio=1.25 / aq=1:0.95
Default : Да
Forced : Нет
Аудио
Идентификатор : 2
Формат : AAC
Формат/Информация : Advanced Audio Codec
Профиль формата : HE-AAC / LC
Идентификатор кодека : A_AAC
Продолжительность : 1 ч. 24 м.
Битрейт : 64,0 Кбит/сек
Каналы : 2 канала
Расположение каналов : Front: L R
Частота : 48,0 КГц / 24,0 КГц
Частота кадров : 23,438 кадра/сек (1024 spf)
Метод сжатия : С потерями
Задержка видео : 31 мс.
Размер потока : 38,8 Мбайт (5%)
Заголовок : iTunes
Язык : Russian
Default : Да
Forced : Нет
Меню
00:00:00.000 : en:Глава 1
00:07:15.583 : en:Глава 2
00:12:27.833 : en:Глава 3
00:20:15.791 : en:Глава 4
00:26:23.791 : en:Глава 5
00:31:57.166 : en:Глава 6
00:38:49.082 : en:Глава 7
00:44:24.957 : en:Глава 8
00:50:30.540 : en:Глава 9
00:56:20.790 : en:Глава 10
01:02:49.081 : en:Глава 11
01:09:37.581 : en:Глава 12
01:16:37.831 : en:Глава 13

Скриншоты

Other forum [Profile] [PM]
Display posts from previous:    
Reply to topic

The time now is: Today 10:11

All times are GMT + 3 Hours



You cannot post new topics in this forum
You cannot reply to topics in this forum
You cannot edit your posts in this forum
You cannot delete your posts in this forum
You cannot vote in polls in this forum
You cannot attach files in this forum
You cannot download files in this forum