Today is a free download without charge Download

Кулл-завоеватель / Kull the Conqueror (1997) [1080p] BDRemux

Reply to topic
 
Author
Message

KirovSOFT ®

Gender:

Longevity: 9 years

Posts: 998

Location: Кировская область -Оричи

Торрент-статистика

Post 17-Aug-2012 20:53

[Quote]

Кулл-завоеватель / Kull the Conqueror (1997) BDRemux-
Русское название: Кулл-завоеватель
Оригинальное название: Kull the Conqueror
Год выпуска: 1997
Страна: США
Жанр: Фэнтези, Боевик, Приключения--Режиссер: Джон Николелла
Актеры: Кевин Сорбо, Тиа Каррере, Томас Йен Гриффит, Лайтфут, Рой Броксмит, Харви Фирштейн, Карина Ломбард, Эдвард Тудор-Поул, Дуглас Хеншэлл, Джо Шоу--Описание фильма: Кулл-завоеватель, бесстрашный воин-варвар, становится королем благодаря своему боевому искусству и храбрости. Обожествляемый своими подданными за милосердие, обожаемый прекрасной предсказательницей Заретой за доблесть, Кулл вскоре становится смертельным врагом сил тьмы, возглавляемых злодейкой Акивашей. Теперь единственная надежда спасти королевство и любимую женщину зависит от меча мести Кулла, и ради этого он рискует всем.
 
Продолжительность: 01:35:38
Перевод: Двуголосый, многоголосый закадровый
Язык субтитров: Английские
Вид субтитров: Вшитые, отключаемые--Качество видео: BDRemux
Видеокодек: MPEG-4 AVC/H.264
Битрейт видео: ~14999 kbps
Размер кадра: 1920x1080
Аудио 1: Русский; AC3, 6 ch, 384.00 kbps - Двухголосый (НТВ+)
Аудио 2: Русский; AC3, 2 ch, 192.00 kbps - Многоголосый (СТС)
Аудио 3: Русский; AC3, 2 ch, 192.00 kbps - Двухголосый (Премьер)
Аудио 4: Русский; AC3, 2 ch, 192.00 kbps - Двухголосый
Аудио 5: Англ-ий; DTS-HD MA 5.1, ~2379.00 kbps-

Доп. инф-я

Цитата
Сохранены оригинальные чаптеры как на Blu-ray.
Запись СТС из личного архива (Diablo), за дорожки НТВ+ и Премьер спасибо galebcev и spartac.

BDinfo

DISC INFO:
Disc Title: Kull.The.Conqueror.1997.1080p.BDRemux
Disc Size: 14 055 940 592 bytes
Protection: AACS
BD-Java: No
BDInfo: 0.5.6
PLAYLIST REPORT:
Name: 00000.MPLS
Length: 1:35:38 (h:m:s)
Size: 14 055 862 272 bytes
Total Bitrate: 19,59 Mbps
VIDEO:
Codec Bitrate Description
----- ------- -----------
MPEG-4 AVC Video 14999 kbps 1080p / 23,976 fps / 16:9 / High Profile 4.1
AUDIO:
Codec Language Bitrate Description
----- -------- ------- -----------
DTS-HD Master Audio English 2379 kbps 5.1 / 48 kHz / 2379 kbps / 16-bit (DTS Core: 5.1 / 48 kHz / 1509 kbps / 16-bit)
Dolby Digital Audio Russian 384 kbps 5.1 / 48 kHz / 384 kbps / DN -4dB
Dolby Digital Audio Russian 192 kbps 2.0 / 48 kHz / 192 kbps / DN -4dB
Dolby Digital Audio Russian 192 kbps 2.0 / 48 kHz / 192 kbps / DN -4dB
Dolby Digital Audio Russian 192 kbps 2.0 / 48 kHz / 192 kbps / DN -4dB
SUBTITLES:
Codec Language Bitrate Description
----- -------- ------- -----------
Presentation Graphics English 14,150 kbps
FILES:
Name Time In Length Size Total Bitrate
---- ------- ------ ---- -------------
00000.M2TS 0:00:00.000 1:35:38.816 14 055 862 272 19 594
CHAPTERS:
Number Time In Length Avg Video Rate Max 1-Sec Rate Max 1-Sec Time Max 5-Sec Rate Max 5-Sec Time Max 10Sec Rate Max 10Sec Time Avg Frame Size Max Frame Size Max Frame Time
------ ------- ------ -------------- -------------- -------------- -------------- -------------- -------------- -------------- -------------- -------------- --------------
1 0:00:00.000 0:07:13.766 15 273 kbps 28 934 kbps 00:00:41.416 28 138 kbps 00:00:37.704 27 407 kbps 00:00:36.369 79 619 bytes 241 650 bytes 00:07:12.348
2 0:07:13.766 0:08:26.380 13 019 kbps 23 113 kbps 00:08:16.871 20 490 kbps 00:10:48.481 20 045 kbps 00:10:45.353 67 877 bytes 291 486 bytes 00:07:18.396
3 0:15:40.147 0:07:11.640 16 733 kbps 28 254 kbps 00:21:35.335 24 912 kbps 00:17:04.231 22 746 kbps 00:16:59.059 87 236 bytes 438 100 bytes 00:18:26.355
4 0:22:51.787 0:09:13.845 15 310 kbps 25 862 kbps 00:30:56.604 23 792 kbps 00:29:11.332 22 647 kbps 00:29:11.249 79 820 bytes 341 563 bytes 00:29:06.995
5 0:32:05.632 0:06:29.681 12 461 kbps 21 004 kbps 00:37:33.501 16 997 kbps 00:34:13.426 16 381 kbps 00:34:10.381 64 959 bytes 269 708 bytes 00:38:30.057
6 0:38:35.313 0:08:47.944 16 717 kbps 30 305 kbps 00:44:39.968 27 246 kbps 00:44:39.968 24 529 kbps 00:44:38.175 87 159 bytes 396 546 bytes 00:41:22.354
7 0:47:23.257 0:07:38.833 14 778 kbps 28 842 kbps 00:48:39.666 24 055 kbps 00:48:38.874 20 807 kbps 00:48:38.665 77 045 bytes 320 492 bytes 00:48:43.837
8 0:55:02.090 0:07:51.595 18 061 kbps 33 129 kbps 00:59:30.275 28 356 kbps 00:59:28.022 26 168 kbps 00:59:22.934 94 159 bytes 402 853 bytes 01:01:21.302
9 1:02:53.686 0:07:49.344 14 394 kbps 29 129 kbps 01:03:38.064 25 442 kbps 01:06:22.436 23 753 kbps 01:03:29.222 75 045 bytes 620 822 bytes 01:03:38.481
10 1:10:43.030 0:08:03.274 13 944 kbps 24 833 kbps 01:18:38.964 20 987 kbps 01:18:21.446 19 061 kbps 01:18:16.191 72 698 bytes 288 917 bytes 01:18:22.280
11 1:18:46.304 0:08:58.913 15 910 kbps 30 429 kbps 01:27:15.146 26 277 kbps 01:27:14.020 24 031 kbps 01:27:08.056 82 947 bytes 265 164 bytes 01:27:00.506
12 1:27:45.218 0:07:53.598 12 898 kbps 30 057 kbps 01:28:39.188 24 472 kbps 01:28:38.813 22 761 kbps 01:29:20.146 67 251 bytes 455 155 bytes 01:30:46.941
STREAM DIAGNOSTICS:
File PID Type Codec Language Seconds Bitrate Bytes Packets
---- --- ---- ----- -------- -------------- -------------- ------------- -----
00000.M2TS 4113 (0x1011) 0x1B AVC 5738,733 14 999 10 759 473 584 58 555 984
00000.M2TS 4352 (0x1100) 0x81 AC3 rus (Russian) 5738,733 384 275 464 704 1 614 051
00000.M2TS 4353 (0x1101) 0x81 AC3 rus (Russian) 5738,733 192 137 732 352 896 695
00000.M2TS 4354 (0x1102) 0x81 AC3 rus (Russian) 5738,733 192 137 732 352 896 695
00000.M2TS 4355 (0x1103) 0x81 AC3 rus (Russian) 5738,733 192 137 732 352 896 695
00000.M2TS 4356 (0x1104) 0x86 DTS-HD MA eng (English) 5738,733 2 379 1 706 442 348 10 166 773
00000.M2TS 4608 (0x1200) 0x90 PGS eng (English) 5738,733 14 10 150 610 59 991

Mediainfo

General
ID : 1 (0x1)
Complete name : G:\Kull.The.Conqueror.1997.1080p.BDRemux\BDMV\STREAM\00000.m2ts
Format : BDAV
Format/Info : Blu-ray Video
File size : 13.1 GiB
Duration : 1h 35mn
Overall bit rate mode : Variable
Overall bit rate : 19.6 Mbps
Maximum Overall bit rate : 35.5 Mbps
Video
ID : 4113 (0x1011)
Menu ID : 1 (0x1)
Format : AVC
Format/Info : Advanced Video Codec
Format profile : [url=mailto:[email protected]][email protected][/url]
Format settings, CABAC : Yes
Format settings, ReFrames : 4 frames
Format settings, GOP : M=3, N=24
Codec ID : 27
Duration : 1h 35mn
Bit rate mode : Variable
Bit rate : 16.3 Mbps
Maximum bit rate : 25.0 Mbps
Width : 1 920 pixels
Height : 1 080 pixels
Display aspect ratio : 16:9
Frame rate : 23.976 fps
Standard : NTSC
Color space : YUV
Chroma subsampling : 4:2:0
Bit depth : 8 bits
Scan type : Progressive
Bits/(Pixel*Frame) : 0.327
Stream size : 10.9 GiB (83%)
Color primaries : BT.709-5, BT.1361, IEC 61966-2-4, SMPTE RP177
Transfer characteristics : BT.709-5, BT.1361
Matrix coefficients : BT.709-5, BT.1361, IEC 61966-2-4 709, SMPTE RP177
Audio #1
ID : 4352 (0x1100)
Menu ID : 1 (0x1)
Format : AC-3
Format/Info : Audio Coding 3
Mode extension : CM (complete main)
Format settings, Endianness : Big
Codec ID : 129
Duration : 1h 35mn
Bit rate mode : Constant
Bit rate : 384 Kbps
Channel(s) : 6 channels
Channel positions : Front: L C R, Side: L R, LFE
Sampling rate : 48.0 KHz
Bit depth : 16 bits
Compression mode : Lossy
Stream size : 263 MiB (2%)
Language : Russian
Audio #2
ID : 4353 (0x1101)
Menu ID : 1 (0x1)
Format : AC-3
Format/Info : Audio Coding 3
Mode extension : CM (complete main)
Format settings, Endianness : Big
Codec ID : 129
Duration : 1h 35mn
Bit rate mode : Constant
Bit rate : 192 Kbps
Channel(s) : 2 channels
Channel positions : Front: L R
Sampling rate : 48.0 KHz
Bit depth : 16 bits
Compression mode : Lossy
Stream size : 131 MiB (1%)
Language : Russian
Audio #3
ID : 4354 (0x1102)
Menu ID : 1 (0x1)
Format : AC-3
Format/Info : Audio Coding 3
Mode extension : CM (complete main)
Format settings, Endianness : Big
Codec ID : 129
Duration : 1h 35mn
Bit rate mode : Constant
Bit rate : 192 Kbps
Channel(s) : 2 channels
Channel positions : Front: L R
Sampling rate : 48.0 KHz
Bit depth : 16 bits
Compression mode : Lossy
Stream size : 131 MiB (1%)
Language : Russian
Audio #4
ID : 4355 (0x1103)
Menu ID : 1 (0x1)
Format : AC-3
Format/Info : Audio Coding 3
Mode extension : CM (complete main)
Format settings, Endianness : Big
Codec ID : 129
Duration : 1h 35mn
Bit rate mode : Constant
Bit rate : 192 Kbps
Channel(s) : 2 channels
Channel positions : Front: L R
Sampling rate : 48.0 KHz
Bit depth : 16 bits
Compression mode : Lossy
Stream size : 131 MiB (1%)
Language : Russian
Audio #5
ID : 4356 (0x1104)
Menu ID : 1 (0x1)
Format : DTS
Format/Info : Digital Theater Systems
Format profile : MA / Core
Muxing mode : Stream extension
Codec ID : 134
Duration : 1h 35mn
Bit rate mode : Variable
Bit rate : 1 576 Kbps / 1 510 Kbps
Channel(s) : 6 channels
Channel positions : Front: L C R, Side: L R, LFE
Sampling rate : 48.0 KHz
Bit depth : 16 bits
Compression mode : Lossless / Lossy
Language : English
Text
ID : 4608 (0x1200)
Menu ID : 1 (0x1)
Format : PGS
Codec ID : 144
Language : English
-Скриншоты:
       

_________________
Other forum [Profile] [PM]

Dybrik13

Gender:

Longevity: 9 years 4 months

Posts: 9

Location: КИЕВ

Торрент-статистика

Post 25-Aug-2012 12:51 (after 7 days)

[Quote]


_________________
Other forum [Profile] [PM]
Display posts from previous:    
Reply to topic

The time now is: Today 06:31

All times are GMT + 3 Hours



You cannot post new topics in this forum
You cannot reply to topics in this forum
You cannot edit your posts in this forum
You cannot delete your posts in this forum
You cannot vote in polls in this forum
You cannot attach files in this forum
You cannot download files in this forum