Today is a free download without charge Download

Я – учитель (Сергей Мокрицкий) [2016, Россия, военный, драма, HDTV 1080i]

Reply to topic
 
Author
Message

Omen ®

Longevity: 8 years 10 months

Posts: 181086

Торрент-статистика

Post 16-May-2016 09:00

[Quote]

Я – учитель- -Страна: Россия
Жанр: военный, драма
Год выпуска: 2016
Производство: «Компания "Новые люди"»
Продолжительность: 01:25:45
Оригинальная аудиодорожка: русский
Cубтитры: нет-Режиссер: Сергей Мокрицкий-В ролях:
Александр Ковтунец, Юлия Пересильд, Андрей Смоляков, Филипп Рейнхардт,
Владислав Абашин, Борис Каморзин, Светлана Осадченко, Сергей Походаев-Описание:
Жить в непростых военных условиях простому сельскому учителю Павлу Зубову давала вера в свой долг — учить детей. Не важно где, не важно кто они — это его призвание, его крест. Вера в любовь и семью, в простые человеческие ценности. Но, в одночасье, череда событий в корне меняет его жизнь, возвращая в реальный мир. В мир, где идёт война, где враг демонстрирует своё истинное лицо, и где невозможно бездействовать, оставаясь тихим учителем, надо бороться за свою семью, любовь, Родину, за свои идеалы и принципы. Перед ним встает непростой духовный и нравственный выбор — либо выживать и приспосабливаться, либо не предавать самого себя и своих близких.-Возраст: 12+-Качество: HDTV (1080i)
Формат: TS
Видео кодек: AVC
Аудио кодек: MPEG Audio

Видео: AVC, 1920 х 1080 (16:9), 25,000 кадр/сек, 6 636 Кбит/сек, 0.128 bit/pixel
Аудио: MPEG Audio 2, 48000 Hz, 192 Kbps, 2 канала
-

MediaInfo

General
ID : 1 (0x1)
Complete name : D:\Раздачи\Я - Учитель HDTV (1080i)\Я - Учитель HDTV (1080i).ts
Format : MPEG-TS
File size : 4.30 GiB
Duration : 1h 25mn
Overall bit rate mode : Variable
Overall bit rate : 7 185 Kbps
Video
ID : 201 (0xC9)
Menu ID : 2201 (0x899)
Format : AVC
Format/Info : Advanced Video Codec
Format profile : [email protected]
Format settings, CABAC : Yes
Format settings, ReFrames : 4 frames
Codec ID : 27
Duration : 1h 25mn
Bit rate : 6 636 Kbps
Width : 1 920 pixels
Height : 1 080 pixels
Display aspect ratio : 16:9
Frame rate : 25.000 fps
Standard : Component
Color space : YUV
Chroma subsampling : 4:2:0
Bit depth : 8 bits
Scan type : Interlaced
Scan type, store method : Separated fields
Scan order : Top Field First
Bits/(Pixel*Frame) : 0.128
Stream size : 3.98 GiB (92%)
Color range : Limited
Color primaries : BT.709
Transfer characteristics : BT.709
Matrix coefficients : BT.709
Audio
ID : 68 (0x44)
Menu ID : 2201 (0x899)
Format : MPEG Audio
Format version : Version 1
Format profile : Layer 2
Codec ID : 3
Duration : 1h 25mn
Bit rate mode : Constant
Bit rate : 192 Kbps
Channel(s) : 2 channels
Sampling rate : 48.0 KHz
Compression mode : Lossy
Stream size : 118 MiB (3%)
Language : Russian

Скриншоты


-Раздаю до первых 5-ти скачавших, на раздачи не возвращаюсь...-
Other forum [Profile] [PM]
Display posts from previous:    
Reply to topic

The time now is: Today 22:31

All times are GMT + 3 Hours



You cannot post new topics in this forum
You cannot reply to topics in this forum
You cannot edit your posts in this forum
You cannot delete your posts in this forum
You cannot vote in polls in this forum
You cannot attach files in this forum
You cannot download files in this forum