Today is a free download without charge Download

Пираньи / Piranha (Джо Данте / Joe Dante) [1978, США, Ужасы, BDRip 720p]

Reply to topic
 
Author
Message

Delia ®

Gender:

Longevity: 10 years

Posts: 1821

Торрент-статистика

Post 17-Aug-2012 11:08

[Quote]

Пираньи / Piranha«They came downriver in their thousands. Their teeth could strip a living man to the bone in seconds.»--
Год выпуска: 1978
Страна: США
Жанр: ужасы, фантастика, комедия, ...
Продолжительность: 01:33:48
Перевод: Профессиональный (двухголосый закадровый)
Субтитры: English ( srt )
Режиссер: Джо Данте
Сценарий: Джон Сейлз, Ричард Робинсон
Продюсер: Джон Дэвисон, Роджер Корман, Чако Ван Лиювен, ...
Оператор: Джейми Андерсон
Композитор: Пино Донаджо
Художник: Билл Меллин, Керри Меллин, Джефф Эйрс
Монтаж: Джо Данте, Марк Голдблатт-Брэдфорд Диллман (Paul Grogan), Хезер Мензес (Maggie McKeown), Кевин МакКарти (Dr. Robert Hoak), Кинен Уинн (Jack), Дик Миллер (Buck Gardner), Барбара Стил (Dr. Mengers), Белинда Бэласки (Betsy), Мелоди Томас Скотт (Laura Dickinson), Брюс Гордон (Colonel Waxman), Бэрри Браун (Trooper), Пол Бартел (Mr. Dumont), Шеннон Коллинз (Suzie Grogan)
Описание: «Холодная война» закончилась, но все ли ее последствия и изобретения ушли в прошлое? В секретной лаборатории вывели гигантских пираний, способных выживать в любом климате. Базу закрыли, а оставшиеся рыбки, вместе со слитой случайно водой, попали в ближайшую речушку, оттуда — в озеро&3; Если прожорливые твари доберутся до океана, исчезнет все живое на земле!-Бюджет: $600 000
Премьера (мир): 3 августа 1978, ...
Рейтинг MPAA: --Релиз группы:
--Качество: BDRip
Формат: MKV
Видео кодек: H.264 (AVC)
Аудио кодеk: AC3
Видео: 1280x720 (16:9), 23.976 fps, AVC, 7 499 Kbps
Аудио: AC3, 192 Kbps, 48.0 KHz, 2 ch (DVO)
Аудио #2: AC3, 192 Kbps, 48.0 KHz, 2 ch (MVO. Андрей Гаврилов )
Аудио #3: AC3, 448 Kbps, 48.0 KHz, 2 ch (ENG)

МедиаИнфо

Код:
General
Complete name                    : Пираньи (1978. Piranha) .mkv
Format                           : Matroska
File size                        : 5.46 GiB
Duration                         : 1h 33mn
Overall bit rate                 : 8 333 Kbps
Encoded date                     : UTC 2012-08-17 07:02:50
Writing application              : mkvmerge v5.4.0 ('Piper') built on Mar 10 2012 13:34:39
Writing library                  : libebml v1.2.3 + libmatroska v1.3.0
Video
ID                               : 1
Format                           : AVC
Format/Info                      : Advanced Video Codec
Format profile                   : [email protected]
Format settings, CABAC           : Yes
Format settings, ReFrames        : 8 frames
Muxing mode                      : Container [email protected]
Codec ID                         : V_MPEG4/ISO/AVC
Duration                         : 1h 33mn
Bit rate                         : 7 499 Kbps
Width                            : 1 280 pixels
Height                           : 720 pixels
Display aspect ratio             : 16:9
Frame rate                       : 23.976 fps
Color space                      : YUV
Chroma subsampling               : 4:2:0
Bit depth                        : 8 bits
Scan type                        : Progressive
Bits/(Pixel*Frame)               : 0.339
Stream size                      : 4.81 GiB (88%)
Writing library                  : x264 core 125 r2208 d9d2288
Encoding settings                : cabac=1 / ref=8 / deblock=1:-3:-3 / analyse=0x3:0x113 / me=umh / subme=10 / psy=1 / psy_rd=1.00:0.25 / mixed_ref=1 / me_range=32 / chroma_me=1 / trellis=2 / 8x8dct=1 / cqm=0 / deadzone=21,11 / fast_pskip=0 / chroma_qp_offset=0 / threads=6 / lookahead_threads=1 / sliced_threads=0 / nr=0 / decimate=0 / interlaced=0 / bluray_compat=0 / constrained_intra=0 / bframes=8 / b_pyramid=2 / b_adapt=2 / b_bias=0 / direct=3 / weightb=1 / open_gop=0 / weightp=2 / keyint=240 / keyint_min=23 / scenecut=40 / intra_refresh=0 / rc=2pass / mbtree=0 / bitrate=7499 / ratetol=1.0 / qcomp=0.80 / qpmin=5 / qpmax=51 / qpstep=4 / cplxblur=20.0 / qblur=0.5 / ip_ratio=1.40 / pb_ratio=1.30 / aq=1:0.70
Audio #1
ID                               : 2
Format                           : AC-3
Format/Info                      : Audio Coding 3
Mode extension                   : CM (complete main)
Codec ID                         : A_AC3
Duration                         : 1h 33mn
Bit rate mode                    : Constant
Bit rate                         : 192 Kbps
Channel(s)                       : 2 channels
Channel positions                : Front: L R
Sampling rate                    : 48.0 KHz
Bit depth                        : 16 bits
Stream size                      : 129 MiB (2%)
Title                            : DVO
Language                         : Russian
Audio #2
ID                               : 3
Format                           : AC-3
Format/Info                      : Audio Coding 3
Mode extension                   : CM (complete main)
Codec ID                         : A_AC3
Duration                         : 1h 33mn
Bit rate mode                    : Constant
Bit rate                         : 192 Kbps
Channel(s)                       : 2 channels
Channel positions                : Front: L R
Sampling rate                    : 48.0 KHz
Bit depth                        : 16 bits
Stream size                      : 129 MiB (2%)
Title                            : AVO . Андрей Гаврилов
Language                         : Russian
Audio #3
ID                               : 4
Format                           : AC-3
Format/Info                      : Audio Coding 3
Mode extension                   : CM (complete main)
Codec ID                         : A_AC3
Duration                         : 1h 33mn
Bit rate mode                    : Constant
Bit rate                         : 448 Kbps
Channel(s)                       : 2 channels
Channel positions                : Front: L R
Sampling rate                    : 48.0 KHz
Bit depth                        : 16 bits
Stream size                      : 301 MiB (5%)
Text
ID                               : 5
Format                           : UTF-8
Codec ID                         : S_TEXT/UTF8
Codec ID/Info                    : UTF-8 Plain Text

Знаете ли Вы, что...

» Стивен Спилберг собирался подать в суд на создателей фильма за плагиат, но, посмотрев картину, отказался от этой идеи, а затем включил Джо Данте в число своих протеже.


Скриншоты

[      
     

_________________
Человек – это канат, натянутый между животным и сверхчеловеком, – канат над пропастью.
В человеке ценно то, что он мост, а не цель. Фридрих Ницше
Other forum [Profile] [PM]
Display posts from previous:    
Reply to topic

The time now is: Today 11:11

All times are GMT + 3 Hours



You cannot post new topics in this forum
You cannot reply to topics in this forum
You cannot edit your posts in this forum
You cannot delete your posts in this forum
You cannot vote in polls in this forum
You cannot attach files in this forum
You cannot download files in this forum