Today is a free download without charge Download

В августе 44-го... (Михаил Пташук) [2001, Беларусь-Россия, Военный, боевик, драма, HDTV 1080i]

Reply to topic
 
Author
Message

Omen ®

Longevity: 8 years 10 months

Posts: 181086

Торрент-статистика

Post 09-May-2016 09:33

[Quote]

В августе 44-го...
Страна: Беларусь-Россия
Студия: Беларусьфильм
Жанр: Военный, боевик, драма
Год выпуска: 2001
Продолжительность: 01:43:05
Перевод: Не требуется
Cубтитры: нет
Режиссер: Михаил Пташук
В ролях: Евгений Миронов, Владислав Галкин, Юрий Колокольников, Беата Тышкевич, Алексей Петренко, Александр Феклистов, Рамаз Чхиквадзе, Александр Балуев, Ярослав Бойко, Анджей Печински, Каролина Грушка, Алексей Панин, Виктор Павлов, Юрий Цурило, Владимир Семаго, Алексей Макаров, Р. Пазура, Александр Лабуш, Альберт Филозов, Константин Соловьев, Иван Лешук, Сергей Кравец, Александр Тимошкин, Николай Кириченко, Геннадий Давыдько, Александр Молчанов, Владимир Компанеец, Александр Ефимов, Юрий Пристром, Сергей Шарангович, Виктор Манаев, Александр Суцковер.
Описание: Лето 1944. До Великой Победы остается еще около года. Белоруссия уже освобождена, однако с ее территории регулярно выходит в эфир группа лазутчиков, передавая врагам очень важную информацию о советских войсках. На поиски шпионов, в район регулярных выходов в эфир запеленгованной рации, был послан отряд разведчиков, во главе с офицером СМЕРШа.
Сэмпл: http://multi-up.com/1100932
Тип релиза: HDTV 1080i
Контейнер: TS
Видео: MPEG-4 AVC, 7634 Кбит/с, 1920x1080, 16:9, 0.147 bits/pixel, 25.000 fps
Аудио: MP2, 2 ch, 192 Кбит/с, 48.0 KHz

MediaInfo

General
ID : 1 (0x1)
Complete name : G:\Торренты\В АВГУСТЕ 44-го.ts
Format : MPEG-TS
File size : 5.93 GiB
Duration : 1h 43mn
Overall bit rate mode : Variable
Overall bit rate : 8 235 Kbps
Video
ID : 201 (0xC9)
Menu ID : 2201 (0x899)
Format : AVC
Format/Info : Advanced Video Codec
Format profile : [email protected]
Format settings, CABAC : Yes
Format settings, ReFrames : 4 frames
Format settings, GOP : M=4, N=28
Codec ID : 27
Duration : 1h 43mn
Bit rate : 7 634 Kbps
Width : 1 920 pixels
Height : 1 080 pixels
Display aspect ratio : 16:9
Frame rate : 25.000 fps
Standard : Component
Color space : YUV
Chroma subsampling : 4:2:0
Bit depth : 8 bits
Scan type : Interlaced
Scan type, store method : Separated fields
Scan order : Top Field First
Bits/(Pixel*Frame) : 0.147
Stream size : 5.50 GiB (93%)
Color range : Limited
Color primaries : BT.709
Transfer characteristics : BT.709
Matrix coefficients : BT.709
Audio
ID : 301 (0x12D)
Menu ID : 2201 (0x899)
Format : MPEG Audio
Format version : Version 1
Format profile : Layer 2
Codec ID : 3
Duration : 1h 43mn
Bit rate mode : Constant
Bit rate : 192 Kbps
Channel(s) : 2 channels
Sampling rate : 48.0 KHz
Compression mode : Lossy
Delay relative to video : -40ms
Stream size : 142 MiB (2%)
Language : English

Скриншоты

Other forum [Profile] [PM]
Display posts from previous:    
Reply to topic

The time now is: Today 14:23

All times are GMT + 3 Hours



You cannot post new topics in this forum
You cannot reply to topics in this forum
You cannot edit your posts in this forum
You cannot delete your posts in this forum
You cannot vote in polls in this forum
You cannot attach files in this forum
You cannot download files in this forum