Today is a free download without charge Download

Колыбельная (Ирина Гурвич) [1984, СССР, мультфильм, WEBRip]

Reply to topic
 
Author
Message

Omen ®

Longevity: 7 years 11 months

Posts: 181087

Торрент-статистика

Post 09-May-2016 06:00

[Quote]

Колыбельная
Страна: СССР (Украинская республика)
Жанр: мультфильм
Продолжительность: 00:09:43
Год выпуска: 1984
Перевод: Не требуется
Режиссёр: Ирина Гурвич
Поёт: Нина Матвиенко
Описание: Образы из колыбельной песни, которую пела мама, сопровождают человека по всей жизни, помогая в трудные минуты.
Доп. информация: Диплом жюри за поэтическое решение военно-патриотической темы на Всесоюзном Кинофестивале в Минске (1985)
Качество: WEBRip
Формат: AVI
Видео: 1397 kbps, 640х512 (5:4), 25.000 fps, MPEG-4 Visual (XviD)
Аудио: 128 kbps, 48.0 kHz, 2 channels, MPEG Audio (MP3)
Субтитры: отсутствуют

Подробные технические данные

GeneralComplete name : Колыбельная (1984).aviFormat : AVIFormat/Info : Audio Video InterleaveFile size : 107 MiBDuration : 9mn 43sOverall bit rate : 1 535 KbpsMovie name : Колыбельная(1984)Writing application : VirtualDubMod 1.5.10.1 (build 2366/release) VirtualDubMod build 2366/releaseWriting library : VirtualDub build 35491/releaseOriginal source form/Name : мультфильмCopyright : Itar-Tass collection
VideoID : 0Format : MPEG-4 VisualFormat profile : Advanced [email protected] settings, BVOP : 2Format settings, QPel : NoFormat settings, GMC : No warppointsFormat settings, Matrix : Default (H.263)Codec ID : XVIDCodec ID/Hint : XviDDuration : 9mn 43sBit rate : 1 397 KbpsWidth : 640 pixelsHeight : 512 pixelsDisplay aspect ratio : 5:4Frame rate : 25.000 fpsColor space : YUVChroma subsampling : 4:2:0Bit depth : 8 bitsScan type : ProgressiveCompression mode : LossyBits/(Pixel*Frame) : 0.170Stream size : 97.2 MiB (91%)Writing library : XviD 64
AudioID : 1Format : MPEG AudioFormat version : Version 1Format profile : Layer 3Codec ID : 55Codec ID/Hint : MP3Duration : 9mn 43sBit rate mode : ConstantBit rate : 128 KbpsChannel(s) : 2 channelsSampling rate : 48.0 KHzCompression mode : LossyStream size : 8.90 MiB (8%)Alignment : Aligned on interleavesInterleave, duration : 40 ms (1.00 video frame)Interleave, preload duration : 504 msWriting library : LAME3.96rEncoding settings : -m s -V 4 -q 2 -lowpass 17.5 -b 128

Скриншоты

Other forum [Profile] [PM]
Display posts from previous:    
Reply to topic

The time now is: Today 05:47

All times are GMT + 3 Hours



You cannot post new topics in this forum
You cannot reply to topics in this forum
You cannot edit your posts in this forum
You cannot delete your posts in this forum
You cannot vote in polls in this forum
You cannot attach files in this forum
You cannot download files in this forum