Today is a free download without charge Download

Волшебная свирель (Михаил Тумеля) [1998, Россия, сказка, мультфильм, DVDRip]

Reply to topic
 
Author
Message

Omen ®

Longevity: 7 years 11 months

Posts: 181087

Торрент-статистика

Post 07-May-2016 09:03

[Quote]

Волшебная свирель
Страна: Россия
Жанр: сказка, мультфильм
Продолжительность: 00:47:37
Год выпуска: 1998
Перевод: Не требуется
Русские субтитры: нет

Режиссёр: Михаил Тумеля
Роли озвучивали: Ю.Маляров, Ахсар Дудиев, Д.Матвеев, А. Гриневич, Асланбек Арчегов, , Ю.Саранцев, А.Быков,В.Кавальков, В.Рахимова, А.Леньков,, Н. Баронина,О.Голованава Б. Токарев, Т. Родионова
Описание: Есть на Кавказе такой народ - осетины.Гордый,независимый народ.Они апрямые потомки древних аланов и в наследство от предков получили их язык,их песни и легенды.
Жило в этих горах, говорит придание,племя богатырей-нартов. Об их силе,умении и гордости до сих пор говорят на Кавказе. Нарты не покорялись никому и даже с богами разговаривали на равных.
Жила-была в давние времена девушка Агунда-самая красивая в селении, самая своенравная и капризная. И влюбились в нее двое благородных нартов, силач Сослан и мечтатель пастух Ацамаз. По законам нартов девушка должна достаться тому из соперников, кто победит в испытаниях.
"Я самый сильный нет в мире сильнее меня!"-кричал Сослан. Но не всякой силе покорится девичье сердце.
Мы расскажем вам про то как шел спор за сердце красавицы Агунды. Вы догадаетесь почему разбил Ацамаз подарок богов - волшебную свирель и отправился с Сосланом в далекий и опасный поход. вам станет понятно, чем понравились нарты матери великана Уаига и как удалось им одолеть ее злобного и коварного сына.

Качество: DVDRip
Формат: AVI
Видео: 640x496 (1.29:1), 25 fps, XviD build 73 ~1976 kbps avg, 0.25 bit/pixel
Аудио: 48 kHz, AC3 Dolby Digital, 2/0 (L,R) ch, ~192 kbps
Субтитры: отсутствуют

Подробные технические данные

ОбщееПолное имя : H:\Волшебная свирель.1998.dvdrip_[745]_[teko].aviФормат : AVIФормат/Информация : Audio Video InterleaveРазмер файла : 742 МбайтПродолжительность : 47 м.Общий поток : 2178 Кбит/секПрограмма кодирования : VirtualDubMod 1.5.10.3 | www.virtualdub-fr.org || (build 2550/release)Библиотека кодирования : VirtualDubMod build 2550/release
ВидеоИдентификатор : 0Формат : MPEG-4 VisualПрофиль формата : Advanced [email protected]Параметр BVOP формата : 2Параметр QPel формата : НетПараметр GMC формата : Без точки переходаПараметр матрицы формата : ВыборочнаяИдентификатор кодека : XVIDИдентификатор кодека/Подсказка : XviDПродолжительность : 47 м.Битрейт : 1977 Кбит/секШирина : 640 пикселейВысота : 496 пикселейСоотношение сторон : 1,290Частота кадров : 25,000 кадров/секЦветовое пространство : YUVСубдискретизация насыщенности : 4:2:0Битовая глубина : 8 битТип развёртки : ПрогрессивнаяМетод сжатия : С потерямиБит/(Пиксели*Кадры) : 0.249Размер потока : 673 Мбайт (91%)Библиотека кодирования : XviD 73
АудиоИдентификатор : 1Формат : AC-3Формат/Информация : Audio Coding 3Расширение режима : CM (complete main)Параметр Endianness формата : BigИдентификатор кодека : 2000Продолжительность : 47 м.Вид битрейта : ПостоянныйБитрейт : 192 Кбит/секКаналы : 2 каналаРасположение каналов : Front: L RЧастота : 48,0 КГцБитовая глубина : 16 битМетод сжатия : С потерямиРазмер потока : 65,4 Мбайт (9%)Выравнивание : Разделение по промежуткамПродолжительность промежутка : 40 мс. (1,00 видеокадр)Время предзагрузки промежутка : 500 мс.

Скриншоты

--
Other forum [Profile] [PM]
Display posts from previous:    
Reply to topic

The time now is: Today 10:03

All times are GMT + 3 Hours



You cannot post new topics in this forum
You cannot reply to topics in this forum
You cannot edit your posts in this forum
You cannot delete your posts in this forum
You cannot vote in polls in this forum
You cannot attach files in this forum
You cannot download files in this forum