Today is a free download without charge Download

Крылья (Андрей Ушаков) [2005, Россия, мультфильм, DVDRip]

Reply to topic
 
Author
Message

Omen ®

Longevity: 7 years 11 months

Posts: 181087

Торрент-статистика

Post 06-May-2016 12:33

[Quote]

Крылья
Страна: Россия
Жанр: мультфильм
Продолжительность: 00:27:01
Год выпуска: 2005
Перевод: Не требуется
Русские субтитры: нет

Режиссёр: Андрей Ушаков
Описание: Мультипликационный фильм о мире, который кажется великим, о счастье, которое можно не заметить, о любви, которую можно потерять.
Качество: DVDRip
Формат: AVI
Видео: 688x384 (1.79:1), 25 fps, XviD build 73 ~1799 kbps avg, 0.27 bit/pixel
Аудио: 48 kHz, AC3 Dolby Digital, 3/2 (L,C,R,l,r) ch, ~384 kbps
Субтитры: отсутствуют

Подробные технические данные

ОбщееПолное имя : H:\Крылья.2005.dvdrip_[teko].aviФормат : AVIФормат/Информация : Audio Video InterleaveРазмер файла : 424 МбайтПродолжительность : 27 м.Общий поток : 2194 Кбит/секПрограмма кодирования : VirtualDubMod 1.5.10.3 | www.virtualdub-fr.org || (build 2550/release)Библиотека кодирования : VirtualDubMod build 2550/release
ВидеоИдентификатор : 0Формат : MPEG-4 VisualПрофиль формата : Advanced [email protected]Параметр BVOP формата : 2Параметр QPel формата : НетПараметр GMC формата : Без точки переходаПараметр матрицы формата : ВыборочнаяИдентификатор кодека : XVIDИдентификатор кодека/Подсказка : XviDПродолжительность : 27 м.Битрейт : 1800 Кбит/секШирина : 688 пикселейВысота : 384 пикселяСоотношение сторон : 16:9Частота кадров : 25,000 кадров/секЦветовое пространство : YUVСубдискретизация насыщенности : 4:2:0Битовая глубина : 8 битТип развёртки : ПрогрессивнаяМетод сжатия : С потерямиБит/(Пиксели*Кадры) : 0.272Размер потока : 348 Мбайт (82%)Библиотека кодирования : XviD 73
АудиоИдентификатор : 1Формат : AC-3Формат/Информация : Audio Coding 3Расширение режима : CM (complete main)Параметр Endianness формата : BigИдентификатор кодека : 2000Продолжительность : 27 м.Вид битрейта : ПостоянныйБитрейт : 384 Кбит/секКаналы : 6 каналовChannel(s)_Original : 5 каналовРасположение каналов : Front: L C R, Side: L RЧастота : 48,0 КГцБитовая глубина : 16 битМетод сжатия : С потерямиЗадержка видео : 600 мс.Размер потока : 74,2 Мбайт (18%)Выравнивание : Разделение по промежуткамПродолжительность промежутка : 40 мс. (1,00 видеокадр)Время предзагрузки промежутка : 500 мс.

Скриншоты

Релиз группы:--
Other forum [Profile] [PM]
Display posts from previous:    
Reply to topic

The time now is: Today 20:56

All times are GMT + 3 Hours



You cannot post new topics in this forum
You cannot reply to topics in this forum
You cannot edit your posts in this forum
You cannot delete your posts in this forum
You cannot vote in polls in this forum
You cannot attach files in this forum
You cannot download files in this forum