Today is a free download without charge Download

Васильки для Василисы (Владимир Устюгов) [2012, Россия, мелодрама, HDTV 1080i]

Reply to topic
 
Author
Message

Omen ®

Longevity: 8 years 10 months

Posts: 181086

Торрент-статистика

Post 04-May-2016 15:00

[Quote]

Васильки для Василисы- -Страна: Россия
Жанр: мелодрама
Год выпуска: 2012
Производство: «АМЕДИА»
Продолжительность: 01:12:23
Оригинальная аудиодорожка: русский
Cубтитры: нет-Режиссер: Владимир Устюгов-В ролях:
Григорий Антипенко, Карина Андоленко, Галина Петрова, Юлия Галкина, Сергей Апрельский,
Алёна Лаптева, Федя Смирнов, Владимир Терещенко, Владимир Чуприков-Описание:
Василиса Дёмина — глава клиентского отдела в клинике пластической хирургии.
Уже несколько лет она живет с главврачом этой клиники Алексеем Григорьевичем, надеясь на то, что однажды они станут настоящей семьей и заведут детей.
Но пока для Василисы все складывается не так, как ей хотелось бы — и в карьере, и в личной жизни.
Вместо того чтобы быть практикующим хирургом, Василиса должна весь день любезничать с клиентами.
Да и Алексей Григорьевич даже не думает о том, чтобы завести семью с Василисой.-Возраст: 16+-Качество: HDTV (1080i)
Формат: TS
Видео кодек: AVC
Аудио кодек: AC3

Видео: AVC, 1920 х 1080 (16:9), 25,000 кадр/сек, 6 655 Кбит/сек, 0.128 bit/pixel
Аудио: AC3, 48000 Hz, 256 Kbps, 2 канала
-

MediaInfo

General
ID : 1 (0x1)
Complete name : D:\Раздачи\Васильки для Василисы HDTV (1080i)\Васильки для Василисы HDTV (1080i).ts
Format : MPEG-TS
File size : 4.76 GiB
Duration : 1h 33mn
Overall bit rate mode : Variable
Overall bit rate : 7 273 Kbps
Video
ID : 4113 (0x1011)
Menu ID : 1 (0x1)
Format : AVC
Format/Info : Advanced Video Codec
Format profile : [email protected]
Format settings, CABAC : Yes
Format settings, ReFrames : 3 frames
Codec ID : 27
Duration : 1h 33mn
Bit rate mode : Variable
Bit rate : 6 655 Kbps
Maximum bit rate : 40.0 Mbps
Width : 1 920 pixels
Height : 1 080 pixels
Display aspect ratio : 16:9
Frame rate : 25.000 fps
Standard : Component
Color space : YUV
Chroma subsampling : 4:2:0
Bit depth : 8 bits
Scan type : Interlaced
Scan type, store method : Separated fields
Scan order : Top Field First
Bits/(Pixel*Frame) : 0.128
Stream size : 4.35 GiB (91%)
Color range : Limited
Color primaries : BT.709
Transfer characteristics : BT.709
Matrix coefficients : BT.709
Audio
ID : 4352 (0x1100)
Menu ID : 1 (0x1)
Format : AC-3
Format/Info : Audio Coding 3
Mode extension : CM (complete main)
Format settings, Endianness : Big
Codec ID : 129
Duration : 1h 33mn
Bit rate mode : Constant
Bit rate : 256 Kbps
Channel(s) : 2 channels
Channel positions : Front: L R
Sampling rate : 48.0 KHz
Frame rate : 31.250 fps (1536 spf)
Compression mode : Lossy
Delay relative to video : -120ms
Stream size : 172 MiB (4%)
Language : Russian

Скриншоты


-Раздаю до первых 5-ти скачавших, на раздачи не возвращаюсь...-
Other forum [Profile] [PM]
Similar theme
Forum Topic Author Torrent Replies Last Post
./templates/default/images/folder_dl.gif Архив Андрей Васильев | Цикл «Файролл» [8 книг] (2014) [FB2] Omen
1 | 0

0 | 3230

1

2014-11-16 14:59
Omen Latest
./templates/default/images/folder_dl.gif Архив Андрей Васильев | Собрание сочинений [23 книги] (2013-2016) [FB2] moralis
1 | 0

0 | 954

0

2016-09-11 12:41
moralis Latest
Display posts from previous:    
Reply to topic

The time now is: Today 17:38

All times are GMT + 3 Hours



You cannot post new topics in this forum
You cannot reply to topics in this forum
You cannot edit your posts in this forum
You cannot delete your posts in this forum
You cannot vote in polls in this forum
You cannot attach files in this forum
You cannot download files in this forum