Today is a free download without charge Download

Кококо (Авдотья Смирнова) [2012, Россия, драма, комедия, HDTV 1080i]

Reply to topic
 
Author
Message

Omen ®

Longevity: 8 years 10 months

Posts: 181086

Торрент-статистика

Post 03-May-2016 15:03

[Quote]

Кококо- -Страна: Россия
Жанр: драма, комедия
Год выпуска: 2012
Производство: «Кинокомпания СТВ»
Продолжительность: 01:23:02
Оригинальная аудиодорожка: русский
Cубтитры: нет-Режиссер: Авдотья Смирнова-В ролях:
Анна Михалкова, Яна Троянова, Евгений Муравич, Геннадий Смирнов, Юлия Снигирь,
Анна Пармас, Константин Шелестун, Любовь Аркус, Татьяна Рябоконь, Сергей Борисов-Описание:
С утра — работа в музее этнографии, вечером — новости по Рен-ТВ, по выходным — митинги и секс с бывшим мужем, научным работником среднего звена. Лиза — типичный представитель питерской интеллигенции. Вика — обычная провинциалка. Отпуск в Петербурге для нее — это водка, вечеринки и авантюры. Казалось, между ними нет ничего общего. Однако по воле случая они встретились — и сошлись: вода и пламень, синий чулок и тусовщица, интеллигенция и народ. Лиза и Вика — две стороны одной медали по имени Россия.-Возраст: 18+-Качество: HDTV (1080i)
Формат: TS
Видео кодек: AVC
Аудио кодек: AC3

Видео: AVC, 1920 х 1080 (16:9), 25,000 кадр/сек, 8 606 Кбит/сек, 0.166 bit/pixel
Аудио: AC3, 48000 Hz, 256 Kbps, 2 канала
-

MediaInfo

General
ID : 1 (0x1)
Complete name : D:\Раздачи\Кококо HDTV (1080i)\Кококо HDTV (1080i).ts
Format : MPEG-TS
File size : 5.41 GiB
Duration : 1h 23mn
Overall bit rate mode : Variable
Overall bit rate : 9 326 Kbps
Video
ID : 4113 (0x1011)
Menu ID : 1 (0x1)
Format : AVC
Format/Info : Advanced Video Codec
Format profile : [email protected]
Format settings, CABAC : Yes
Format settings, ReFrames : 3 frames
Format settings, GOP : M=4, N=32
Codec ID : 27
Duration : 1h 23mn
Bit rate mode : Variable
Bit rate : 8 606 Kbps
Maximum bit rate : 40.0 Mbps
Width : 1 920 pixels
Height : 1 080 pixels
Display aspect ratio : 16:9
Frame rate : 25.000 fps
Standard : Component
Color space : YUV
Chroma subsampling : 4:2:0
Bit depth : 8 bits
Scan type : Interlaced
Scan type, store method : Separated fields
Scan order : Top Field First
Bits/(Pixel*Frame) : 0.166
Stream size : 4.99 GiB (92%)
Color range : Limited
Color primaries : BT.709
Transfer characteristics : BT.709
Matrix coefficients : BT.709
Audio
ID : 4352 (0x1100)
Menu ID : 1 (0x1)
Format : AC-3
Format/Info : Audio Coding 3
Mode extension : CM (complete main)
Format settings, Endianness : Big
Codec ID : 129
Duration : 1h 23mn
Bit rate mode : Constant
Bit rate : 256 Kbps
Channel(s) : 2 channels
Channel positions : Front: L R
Sampling rate : 48.0 KHz
Frame rate : 31.250 fps (1536 spf)
Compression mode : Lossy
Delay relative to video : -120ms
Stream size : 152 MiB (3%)
Language : Russian

Скриншоты


-Раздаю до первых 5-ти скачавших, на раздачи не возвращаюсь...-
Other forum [Profile] [PM]
Display posts from previous:    
Reply to topic

The time now is: Today 18:15

All times are GMT + 3 Hours



You cannot post new topics in this forum
You cannot reply to topics in this forum
You cannot edit your posts in this forum
You cannot delete your posts in this forum
You cannot vote in polls in this forum
You cannot attach files in this forum
You cannot download files in this forum