Today is a free download without charge Download

Со мною вот что происходит (Виктор Шамиров) [2012, Россия, драма, HDTV 1080i]

Reply to topic
 
Author
Message

Omen ®

Longevity: 8 years 10 months

Posts: 181086

Торрент-статистика

Post 02-May-2016 21:03

[Quote]

Со мною вот что происходит- -Страна: Россия
Жанр: драма
Год выпуска: 2012
Производство: «Кинокомпания «Сцена», YBW-group»
Продолжительность: 01:12:23
Оригинальная аудиодорожка: русский
Cубтитры: нет-Режиссер: Виктор Шамиров-В ролях:
Гоша Куценко, Виктор Шамиров, Олеся Железняк, Саша Петрова, Николай Чиндяйкин, Маргарита Шубина, Александр Робак-Описание:
31 декабря. Московские невозможные пробки. Спешка без результатов, помощь, от которой никому не становится легче.
Разговоры о бесконечных мелочах, в которых проходит жизнь — а может, уже и прошла. Об отце, которому осталось всего ничего, и ничего не сделаешь.
О планах тринадцатилетней девочки на жизнь: можно стать онкологом, можно — дизайнером еды. О том, что было, и что теперь.-Возраст: 16+-Качество: HDTV (1080i)
Формат: TS
Видео кодек: AVC
Аудио кодек: MPEG Audio 2

Видео: AVC, 1920 х 1080 (16:9), 25,000 кадр/сек, 7 366 Кбит/сек, 0.142 bit/pixel
Аудио: MPEG Audio 2, 48000 Hz, 256 Kbps, 2 канала
-

MediaInfo

General
ID : 1 (0x1)
Complete name : D:\Раздачи\Со мною вот что происходит HDTV (1080i)\Со мною вот что происходит HDTV (1080i).ts
Format : MPEG-TS
File size : 4.06 GiB
Duration : 1h 12mn
Overall bit rate mode : Variable
Overall bit rate : 8 021 Kbps
Video
ID : 256 (0x100)
Menu ID : 1 (0x1)
Format : AVC
Format/Info : Advanced Video Codec
Format profile : [email protected]
Format settings, CABAC : Yes
Format settings, ReFrames : 3 frames
Format settings, GOP : M=4, N=32
Codec ID : 27
Duration : 1h 12mn
Bit rate : 7 366 Kbps
Width : 1 920 pixels
Height : 1 080 pixels
Display aspect ratio : 16:9
Frame rate : 25.000 fps
Standard : Component
Color space : YUV
Chroma subsampling : 4:2:0
Bit depth : 8 bits
Scan type : Interlaced
Scan type, store method : Separated fields
Scan order : Top Field First
Bits/(Pixel*Frame) : 0.142
Stream size : 3.72 GiB (92%)
Color range : Limited
Color primaries : BT.709
Transfer characteristics : BT.709
Matrix coefficients : BT.709
Audio
ID : 257 (0x101)
Menu ID : 1 (0x1)
Format : MPEG Audio
Format version : Version 1
Format profile : Layer 2
Codec ID : 3
Duration : 1h 12mn
Bit rate mode : Constant
Bit rate : 256 Kbps
Channel(s) : 2 channels
Sampling rate : 48.0 KHz
Compression mode : Lossy
Stream size : 133 MiB (3%)
Language : English

Скриншоты


-Раздаю до первых 5-ти скачавших, на раздачи не возвращаюсь...-
Other forum [Profile] [PM]
Display posts from previous:    
Reply to topic

The time now is: Today 14:17

All times are GMT + 3 Hours



You cannot post new topics in this forum
You cannot reply to topics in this forum
You cannot edit your posts in this forum
You cannot delete your posts in this forum
You cannot vote in polls in this forum
You cannot attach files in this forum
You cannot download files in this forum