Today is a free download without charge Download

Спридит / Sprīdītis (Ансис Берзиньш / Ansins Bērziņš) [1982, СССР, мультфильм, сказка, экранизация, DVDRip] MVO

Reply to topic
 
Author
Message

Omen ®

Longevity: 7 years 11 months

Posts: 181087

Торрент-статистика

Post 02-May-2016 09:00

[Quote]

Спридит / Sprīdītis
Страна: СССР (Латвийская республика)
Жанр: мультфильм, сказка, экранизация
Продолжительность: 00:19:20
Год выпуска: 1982
Перевод: Любительский (многоголосый закадровый) progulkin & Co
Русские субтитры: нет
Режиссёр: Ансис Берзиньш / Ansins Bērziņš
Описание: По сказочной пьесе Анны Бригадере.
Отправился однажды маленький пастушок Спридит в лес клад искать, а в итоге нашёл много приключений. Повстречал Мать Ветров и Мать Леса, спас детей от великана, наказал жестокого скупца, и даже с самим Чёртом сразился...
Качество: DVDRip
Формат: AVI
Видео: 2383 kbps, 720х544 (4:3), 25.000 fps, MPEG-4 Visual (XviD)
Аудио: 160 kbps, 48.0 kHz, 2 channels, MPEG Audio (MP3)
Субтитры: отсутствуют

Подробные технические данные

GeneralComplete name : Spriditis (1982).aviFormat : AVIFormat/Info : Audio Video InterleaveFile size : 353 MiBDuration : 19mn 20sOverall bit rate : 2 553 KbpsWriting application : VirtualDubMod 1.5.10.2 (build 2540/release)Writing library : VirtualDub build 35491/release
VideoID : 0Format : MPEG-4 VisualFormat profile : Advanced [email protected] settings, BVOP : 2Format settings, QPel : NoFormat settings, GMC : No warppointsFormat settings, Matrix : Default (H.263)Codec ID : XVIDCodec ID/Hint : XviDDuration : 19mn 20sBit rate : 2 383 KbpsWidth : 720 pixelsHeight : 544 pixelsDisplay aspect ratio : 4:3Frame rate : 25.000 fpsColor space : YUVChroma subsampling : 4:2:0Bit depth : 8 bitsScan type : ProgressiveCompression mode : LossyBits/(Pixel*Frame) : 0.243Stream size : 330 MiB (93%)Writing library : XviD 64
AudioID : 1Format : MPEG AudioFormat version : Version 1Format profile : Layer 3Mode : Joint stereoCodec ID : 55Codec ID/Hint : MP3Duration : 19mn 20sBit rate mode : ConstantBit rate : 160 KbpsChannel(s) : 2 channelsSampling rate : 48.0 KHzCompression mode : LossyStream size : 22.1 MiB (6%)Alignment : Aligned on interleavesInterleave, duration : 40 ms (1.00 video frame)Interleave, preload duration : 504 ms

Скриншоты

Other forum [Profile] [PM]
Display posts from previous:    
Reply to topic

The time now is: Today 18:41

All times are GMT + 3 Hours



You cannot post new topics in this forum
You cannot reply to topics in this forum
You cannot edit your posts in this forum
You cannot delete your posts in this forum
You cannot vote in polls in this forum
You cannot attach files in this forum
You cannot download files in this forum