Today is a free download without charge Download

Привидение / Призрак / Ghost (Джерри Цукер / Jerry Zucker) [1990, США, Драма, мелодрама, фэнтэзи, BDRip 1080p]

Reply to topic
 
Author
Message

Delia ®

Gender:

Longevity: 11 years

Posts: 1821

Торрент-статистика

Post 14-Aug-2012 13:08

[Quote]

Привидение / Ghost«You will believe.»--
Год выпуска: 1990
Страна: США
Жанр: фэнтези, триллер, драма, мелодрама, детектив, ...
Продолжительность: 02:06:39
Перевод: Профессиональный (многоголосый закадровый)
Субтитры: Russian (2v) , english (srt)
Режиссер: Джерри Цукер
Сценарий: Брюс Джоэл Рубин
Продюсер: Стивен-Чарльз Джаффе, Брюс Джоэл Рубин, Лиза Вайнштейн, ...
Оператор: Адам Гринберг
Композитор: Морис Жарр
Художник: Джейн Маски, Марк В. Мэнсбридж, Рут Морли, ...
Монтаж: Уолтер Мёрч-В ролях: Патрик Суэйзи (Patrick Swayze), Деми Мур (Demi Moore), Вупи Голдберг (Whoopi Goldberg), Тони Голдуин (Tony Goldwyn), Стэнли Лоуренс (Stanley Lawrence), Кристофер Дж. Кин (Christopher J. Keene), Сьюзен Бреслау (Susan Breslau), Мартина Дэйнан (Martina Deignan), Рик Клебер (Rick Kleber), Мэка Фоли (Macka Foley), Рик Авилес (Rick Aviles), Фил Лидс (Phil Leeds), Джон Хью (John Hugh), Сэм Цуцувас (Sam Tsoutsouvas), Шарон Бреслау (Sharon Breslau), Винсент Скьявелли (Vincent Schiavelli), Анджелина Эстрада (Angelina Estrada), Армелия МакКуин (Armelia McQueen), Гэйл Боггс (Gail Boggs), Том Керли (Thom Curley)
Описание: Счастливая парочка возвращается домой после вечера в театре. На тёмной аллее на них нападает грабитель&3; Защищаясь, Сэм погибает. Теперь он только призрак, но всё еще может помочь своей возлюбленной! Сэм-привидение узнаёт, что его смерть не была случайной, а над Молли нависла смертельная опасность! Но для Молли он теперь «человек-невидимка», которого она не видит и не слышит. Как предупредить её об опасности?Единственный способ связаться с Молли и передать ей важное сообщение — воспользоваться сверхъестественными способностями неопытной женщины-медиума по имени Ода Мэй Браун. Ода не уверена в своих силах, но очень хочет помочь...-Рейтинг MPAA: --Релиз группы:
--Качество: BDRip 1080p
Формат: MKV
Видео кодек: H.264 (AVC)
Аудио кодеk: AC3
Видео: 1920x1080 (16:9), 23.976 fps, AVC, 8 089 Kbps
Аудио: AC3, 448 Kbps, 48.0 KHz, 6 ch ( Universal Pictures Rus )
Аудио #2: AC3, 448 Kbps, 48.0 KHz, 6 ch (ENG)

Отдельно на народ.ру
48 kHz, AC3, 2/0 (L,R) ch, ~320.00 kbps avg (RUS, MVO) |СТС|
48 kHz, AC3, 3/2 (L,C,R,l,r) + LFE ch, ~448.00 kbps avg (RUS, MVO) |Карусель|
48 kHz, AC3, 3/2 (L,C,R,l,r) + LFE ch, ~448.00 kbps avg (RUS, MVO) |Киномания|
48 kHz, AC3, 2/0 (L,R) ch, ~256.00 kbps avg (RUS, MVO) |Премьер Видео Фильм|
48 kHz, AC3, 3/2 (L,C,R,l,r) + LFE ch, ~448.00 kbps avg (RUS, AVO) |А. Михалёв|

МедиаИнфо

Код:
General
Complete name                    : Ghost.1990.BDRip-F.HD.mkv
Format                           : Matroska
File size                        : 7.95 GiB
Duration                         : 2h 6mn
Overall bit rate                 : 8 983 Kbps
Encoded date                     : UTC 2012-08-14 08:51:18
Writing application              : mkvmerge v5.7.0 ('The Whirlwind') built on Jul  8 2012 20:08:51
Writing library                  : libebml v1.2.3 + libmatroska v1.3.0
Video
ID                               : 1
Format                           : AVC
Format/Info                      : Advanced Video Codec
Format profile                   : [email protected]
Format settings, CABAC           : Yes
Format settings, ReFrames        : 4 frames
Muxing mode                      : Container [email protected]
Codec ID                         : V_MPEG4/ISO/AVC
Duration                         : 2h 6mn
Bit rate                         : 8 089 Kbps
Width                            : 1 920 pixels
Height                           : 1 080 pixels
Display aspect ratio             : 16:9
Frame rate                       : 23.976 fps
Color space                      : YUV
Chroma subsampling               : 4:2:0
Bit depth                        : 8 bits
Scan type                        : Progressive
Bits/(Pixel*Frame)               : 0.163
Stream size                      : 7.00 GiB (88%)
Writing library                  : x264 core 125 r2208 d9d2288
Encoding settings                : cabac=1 / ref=4 / deblock=1:-2:-2 / analyse=0x3:0x113 / me=umh / subme=10 / psy=1 / psy_rd=1.00:0.20 / mixed_ref=1 / me_range=32 / chroma_me=1 / trellis=2 / 8x8dct=1 / cqm=0 / deadzone=21,11 / fast_pskip=0 / chroma_qp_offset=1 / threads=6 / lookahead_threads=1 / sliced_threads=0 / nr=0 / decimate=0 / interlaced=0 / bluray_compat=0 / constrained_intra=0 / bframes=8 / b_pyramid=2 / b_adapt=2 / b_bias=0 / direct=3 / weightb=1 / open_gop=0 / weightp=2 / keyint=240 / keyint_min=23 / scenecut=40 / intra_refresh=0 / rc=2pass / mbtree=0 / bitrate=8089 / ratetol=1.0 / qcomp=0.80 / qpmin=0 / qpmax=69 / qpstep=4 / cplxblur=20.0 / qblur=0.5 / ip_ratio=1.40 / pb_ratio=1.30 / aq=2:0.80
Color primaries                  : BT.709-5, BT.1361, IEC 61966-2-4, SMPTE RP177
Transfer characteristics         : BT.709-5, BT.1361
Matrix coefficients              : BT.709-5, BT.1361, IEC 61966-2-4 709, SMPTE RP177
Audio #1
ID                               : 2
Format                           : AC-3
Format/Info                      : Audio Coding 3
Mode extension                   : CM (complete main)
Codec ID                         : A_AC3
Duration                         : 2h 6mn
Bit rate mode                    : Constant
Bit rate                         : 448 Kbps
Channel(s)                       : 6 channels
Channel positions                : Front: L C R, Side: L R, LFE
Sampling rate                    : 48.0 KHz
Bit depth                        : 16 bits
Stream size                      : 406 MiB (5%)
Language                         : Russian
Audio #2
ID                               : 3
Format                           : AC-3
Format/Info                      : Audio Coding 3
Mode extension                   : CM (complete main)
Codec ID                         : A_AC3
Duration                         : 2h 6mn
Bit rate mode                    : Constant
Bit rate                         : 448 Kbps
Channel(s)                       : 6 channels
Channel positions                : Front: L C R, Side: L R, LFE
Sampling rate                    : 48.0 KHz
Bit depth                        : 16 bits
Stream size                      : 406 MiB (5%)
Text #1
ID                               : 4
Format                           : UTF-8
Codec ID                         : S_TEXT/UTF8
Codec ID/Info                    : UTF-8 Plain Text
Language                         : Russian
Text #2
ID                               : 5
Format                           : UTF-8
Codec ID                         : S_TEXT/UTF8
Codec ID/Info                    : UTF-8 Plain Text
Language                         : Russian
Text #3
ID                               : 6
Format                           : UTF-8
Codec ID                         : S_TEXT/UTF8
Codec ID/Info                    : UTF-8 Plain Text
Menu
00:00:00.000                     : en:Chapter 01
00:11:08.250                     : en:Chapter 02
00:17:18.037                     : en:Chapter 03
00:32:06.591                     : en:Chapter 04
00:37:42.760                     : en:Chapter 05
00:47:04.530                     : en:Chapter 06
01:12:23.756                     : en:Chapter 07
01:18:02.511                     : en:Chapter 08
01:22:16.806                     : en:Chapter 09
01:34:30.956                     : en:Chapter 10
01:38:54.094                     : en:Chapter 11
01:44:26.677                     : en:Chapter 12
01:49:09.501                     : en:Chapter 13
01:52:13.935                     : en:Chapter 14
01:57:40.386                     : en:Chapter 15
02:02:15.328                     : en:Chapter 16

Знаете ли Вы, что...

» На показах в мексиканском городе Монтеррей, зрительницам на входе выдавались специальные конверты, внутри которых находились носовые платки.
» На роль Оды Мэй Браун планировалось пригласить другую актрису, но Патрик Суэйзи, большой почитатель таланта Вупи Голдберг, сумел убедить продюсеров, что афроамериканская актриса наилучший кандидат на ее исполнение.
» Режиссер Джерри Цукер в каждой своей картине обязательно дает эпизодическую роль своей матери. Здесь она сыграла сотрудницу банка.
» Брюс Уиллис отказался от главной роли, посчитав, что фильм непременно провалится в прокате.
» Среди огромного списка претендентов на главную роль, фигурировало имя Пола Хогана. Но актер предпочел работу над проектом «Почти ангел» (1990).
» Ужасные крики «демонов» в действительности являются детскими криками, проигранными с замедленной скоростью.
» На роль Молли пробовалась актриса Молли Рингуолд.


Скриншоты

[      
     

_________________
Человек – это канат, натянутый между животным и сверхчеловеком, – канат над пропастью.
В человеке ценно то, что он мост, а не цель. Фридрих Ницше
Other forum [Profile] [PM]
Display posts from previous:    
Reply to topic

The time now is: Today 02:40

All times are GMT + 3 Hours



You cannot post new topics in this forum
You cannot reply to topics in this forum
You cannot edit your posts in this forum
You cannot delete your posts in this forum
You cannot vote in polls in this forum
You cannot attach files in this forum
You cannot download files in this forum