Today is a free download without charge Download

Поле / Põld / The Field (Рейн Раамат / Rein Raamat) [1978, СССР, мультфильм, притча, VHSRip]

Reply to topic
 
Author
Message

Omen ®

Longevity: 7 years 11 months

Posts: 181087

Торрент-статистика

Post 01-May-2016 06:03

[Quote]

Поле / Põld / The Field
Страна: СССР (Эстонская республика)
Жанр: мультфильм, притча
Продолжительность: 00:09:13
Год выпуска: 1978
Перевод: не требуется
Русские субтитры: нет
Режиссёр: Рейн Раамат / Rein Raamat
Описание: Расчищая поле, крестьянин корчует из земли пни и нагружает телегу огромными валунами. Лошадь, запряжённая в эту телегу, вдруг сбрасывает ярмо и убегает на волю...
Доп. информация: Премия Союза Художников Туркменской республики - XXII Всесоюзный КиноФестиваль в Ашхабаде (1979)
Качество: VHSRip
Формат: AVI
Видео: 1505 kbps, 704х528 (4:3), 25.000 fps, MPEG-4 Visual (XviD)
Аудио: 128 kbps, 48.0 kHz, 2 channels, MPEG Audio (MP3)
Субтитры: отсутствуют

Подробные технические данные

GeneralComplete name : Põld (1978).aviFormat : AVIFormat/Info : Audio Video InterleaveFile size : 108 MiBDuration : 9mn 13sOverall bit rate : 1 642 KbpsWriting application : VirtualDubMod 1.5.4.1 (build 2178/release)Writing library : VirtualDub build 35491/release
VideoID : 0Format : MPEG-4 VisualFormat profile : Advanced [email protected] settings, BVOP : 2Format settings, QPel : NoFormat settings, GMC : No warppointsFormat settings, Matrix : Default (H.263)Codec ID : XVIDCodec ID/Hint : XviDDuration : 9mn 13sBit rate : 1 505 KbpsWidth : 704 pixelsHeight : 528 pixelsDisplay aspect ratio : 4:3Frame rate : 25.000 fpsColor space : YUVChroma subsampling : 4:2:0Bit depth : 8 bitsScan type : ProgressiveCompression mode : LossyBits/(Pixel*Frame) : 0.162Stream size : 99.2 MiB (92%)Writing library : XviD 64
AudioID : 1Format : MPEG AudioFormat version : Version 1Format profile : Layer 3Mode : Joint stereoMode extension : MS StereoCodec ID : 55Codec ID/Hint : MP3Duration : 9mn 13sBit rate mode : ConstantBit rate : 128 KbpsChannel(s) : 2 channelsSampling rate : 48.0 KHzCompression mode : LossyStream size : 8.44 MiB (8%)Alignment : Aligned on interleavesInterleave, duration : 40 ms (1.00 video frame)Interleave, preload duration : 504 ms

Скриншоты

Other forum [Profile] [PM]
Display posts from previous:    
Reply to topic

The time now is: Today 10:31

All times are GMT + 3 Hours



You cannot post new topics in this forum
You cannot reply to topics in this forum
You cannot edit your posts in this forum
You cannot delete your posts in this forum
You cannot vote in polls in this forum
You cannot attach files in this forum
You cannot download files in this forum