Today is a free download without charge Download

Первая охота (Галина Шакицкая) [2005 г., по рассказу Виталия Бианки, Мультфильм, DVDRip]

Reply to topic
 
Author
Message

Omen ®

Longevity: 7 years 11 months

Posts: 181087

Торрент-статистика

Post 30-Apr-2016 03:00

[Quote]

Первая охотаСтрана: Россия
Жанр: Мультфильм
Продолжительность: 00:07:18
Год выпуска: 2005
Выпущено: Киностудия «Союзмультфильм»
Режиссёр: Галина Шакицкая
Русские субтитры: нетОписание:По рассказу Виталия Бианки.
Как-то раз одному щенку надоело кур по двору гонять. И решил отправиться он в лес — на охоту. По пути незадачливый охотник встречает много интересных лесных тварей и даже приносит домой добычу...

Режиссёр и команда

Режиссёр Галина Шакицкая
сценарист Т. Папорова
Кинорежиссёр Н. Козлов
продюсер Акоп Киракосян
художник-постановщик: Галина Шакицкая
художники-аниматоры: Г. Зеброва, М. Рогова, В. Шевченко
композитор И. Назарук
звукооператор А. Ретин
Роли озвучили: О. Шорохова, Л. Дуров.
Качество: DVDRip
Формат: AVI
Видео: 720x544 (1.32:1), 25 fps, XviD build 64 ~2245 kbps avg, 0.23 bit/pixel
Аудио: 48 kHz, AC3 Dolby Digital, 2/0 (L,R) ch, ~192 kbps
Субтитры: отсутствуют

Подробные технические данные

ОбщееПолное имя : D:\Мульты\Первая охота.aviФормат : AVIФормат/Информация : Audio Video InterleaveРазмер файла : 128 МбайтПродолжительность : 7 м. 17 с.Общий поток : 2447 Кбит/секПрограмма кодирования : VirtualDubMod 1.5.10.2 (build 2540/release)Библиотека кодирования : VirtualDubMod build 2540/release
ВидеоИдентификатор : 0Формат : MPEG-4 VisualПрофиль формата : Advanced [email protected]Параметр BVOP формата : 2Параметр QPel формата : НетПараметр GMC формата : Без точки переходаПараметр матрицы формата : ВыборочнаяИдентификатор кодека : XVIDИдентификатор кодека/Подсказка : XviDПродолжительность : 7 м. 17 с.Битрейт : 2245 Кбит/секШирина : 720 пикселейВысота : 544 пикселяСоотношение сторон : 4:3Частота кадров : 25,000 кадров/секЦветовое пространство : YUVСубдискретизация насыщенности : 4:2:0Битовая глубина : 8 битТип развёртки : ПрогрессивнаяМетод сжатия : С потерямиБит/(Пиксели*Кадры) : 0.229Размер потока : 117 Мбайт (92%)Библиотека кодирования : XviD 64
АудиоИдентификатор : 1Формат : AC-3Формат/Информация : Audio Coding 3Расширение режима : CM (complete main)Идентификатор кодека : 2000Продолжительность : 7 м. 17 с.Вид битрейта : ПостоянныйБитрейт : 192 Кбит/секКаналы : 2 каналаРасположение каналов : Front: L RЧастота : 48,0 КГцБитовая глубина : 16 битМетод сжатия : С потерямиРазмер потока : 10,0 Мбайт (8%)Выравнивание : Разделение по промежуткамПродолжительность промежутка : 40 мс. (1,00 видеокадр)Время предзагрузки промежутка : 500 мс.

Скриншоты

-Сравнение :
http://screenshotcomparison.com/comparison/171178-
Other forum [Profile] [PM]

deamoniquese

Longevity: 4 years 5 months

Posts: 1

Торрент-статистика

Post 30-Apr-2016 17:09 (after 14 hours)

[Quote]

Хороший мультик, есть ещё-нить в этом духе?
Other forum [Profile] [PM]
Similar theme
Forum Topic Author Torrent Replies Last Post
./templates/default/images/folder_dl.gif Медицина и Здоровье Игорь Платонов и др. | Первая помощь. Что нужно знать каждому (2013) [PDF] moralis
1 | 0

0 | 1356

6

2016-02-02 18:55
moralis Latest
Display posts from previous:    
Reply to topic

The time now is: Today 09:58

All times are GMT + 3 Hours



You cannot post new topics in this forum
You cannot reply to topics in this forum
You cannot edit your posts in this forum
You cannot delete your posts in this forum
You cannot vote in polls in this forum
You cannot attach files in this forum
You cannot download files in this forum