Today is a free download without charge Download

Дед Мазай и другие (Эльвира Авакян) [2007 г., Мультфильм, DVDRip]

Reply to topic
 
Author
Message

Omen ®

Longevity: 7 years 11 months

Posts: 181087

Торрент-статистика

Post 30-Apr-2016 00:33

[Quote]

Дед Мазай и другиеСтрана: Россия
Жанр: Мультфильм
Продолжительность: 00:13:19
Год выпуска: 2007
Выпущено: Киностудия «Союзмультфильм»
Режиссёр: Эльвира Авакян
Русские субтитры: нетОписание:Произведение Николая Некрасова «Дедушка Мазай и зайцы» знакомо многим людям, оно рассказывает историю о том, как добрый дед спасал зайцев, собирая их с льдин на своей лодке. По этому произведению было создано несколько мультфильмов, но короткометражная лента 2007 года «Дед Мазай и другие» среди них сильно выделяется своей оригинальностью. Сюжет изменили, хотя главные акценты прежние – добрый Дед Мазай, который всем хотел помочь. Итак, дедушке предстоит спасать не только зайчиков, но и других известных персонажей: персидскую княжну, собачку Муму, Робинзона Крузо и даже «Титаник».

Режиссёр и команда

Режиссёр Эльвира Авакян
сценарист Андрей Усачёв
продюсер Акоп Киракосян
художник-постановщик: А. Мартынов
композитор С. Анашкин
звукооператор А. Ретин
Роли озвучили: А. Пинегин, Л. Гнилова, Г. Анашкин, В. Костин, С. Мансуров, О. Шорохова, Л. Брохман, Д. Курта
Качество: DVDRip
Формат: AVI
Видео: 720x544 (1.32:1), 25 fps, XviD build 64 ~2246 kbps avg, 0.23 bit/pixel
Аудио: 48 kHz, AC3 Dolby Digital, 2/0 (L,R) ch, ~192 kbps
Субтитры: отсутствуют

Подробные технические данные

ОбщееПолное имя : D:\Мульты\Дед Мазай и другие.aviФормат : AVIФормат/Информация : Audio Video InterleaveРазмер файла : 233 МбайтПродолжительность : 13 м.Общий поток : 2449 Кбит/секПрограмма кодирования : VirtualDubMod 1.5.10.2 (build 2540/release)Библиотека кодирования : VirtualDubMod build 2540/release
ВидеоИдентификатор : 0Формат : MPEG-4 VisualПрофиль формата : Advanced [email protected]Параметр BVOP формата : 2Параметр QPel формата : НетПараметр GMC формата : Без точки переходаПараметр матрицы формата : ВыборочнаяИдентификатор кодека : XVIDИдентификатор кодека/Подсказка : XviDПродолжительность : 13 м.Битрейт : 2247 Кбит/секШирина : 720 пикселейВысота : 544 пикселяСоотношение сторон : 4:3Частота кадров : 25,000 кадров/секЦветовое пространство : YUVСубдискретизация насыщенности : 4:2:0Битовая глубина : 8 битТип развёртки : ПрогрессивнаяМетод сжатия : С потерямиБит/(Пиксели*Кадры) : 0.229Размер потока : 214 Мбайт (92%)Библиотека кодирования : XviD 64
АудиоИдентификатор : 1Формат : AC-3Формат/Информация : Audio Coding 3Расширение режима : CM (complete main)Идентификатор кодека : 2000Продолжительность : 13 м.Вид битрейта : ПостоянныйБитрейт : 192 Кбит/секКаналы : 2 каналаРасположение каналов : Front: L RЧастота : 48,0 КГцБитовая глубина : 16 битМетод сжатия : С потерямиРазмер потока : 18,3 Мбайт (8%)Выравнивание : Разделение по промежуткамПродолжительность промежутка : 40 мс. (1,00 видеокадр)Время предзагрузки промежутка : 500 мс.

Скриншоты

-
Other forum [Profile] [PM]
Display posts from previous:    
Reply to topic

The time now is: Today 04:40

All times are GMT + 3 Hours



You cannot post new topics in this forum
You cannot reply to topics in this forum
You cannot edit your posts in this forum
You cannot delete your posts in this forum
You cannot vote in polls in this forum
You cannot attach files in this forum
You cannot download files in this forum