Today is a free download without charge Download

Прекрасная лягушка (Эльвира Авакян) [2008 г., Мультфильм, DVDRip]

Reply to topic
 
Author
Message

Omen ®

Longevity: 7 years 11 months

Posts: 181087

Торрент-статистика

Post 30-Apr-2016 00:00

[Quote]

Прекрасная лягушкаСтрана: Россия
Жанр: Мультфильм
Продолжительность: 00:13:52
Год выпуска: 2008
Выпущено: Киностудия «Союзмультфильм»
Режиссёр: Эльвира Авакян
Русские субтитры: нетОписание:Современная версия известной русской сказки «Царевна лягушка».
По воле батюшки-царя его сыновья должны жениться. Каждому царевичу достаётся жена подстать ему самому. А младший Иван-царевич, которого братья презрительно называют дураком, «ботаником», женится на лягушке.
Фильм участвовал в конкурсной программе фестиваля Суздаль-2009.

Режиссёр и команда

Режиссёр Эльвира Авакян
сценарист Андрей Усачёв
продюсер Акоп Киракосян
художники-постановщики: Наталья Наумова, Эльвира Авакян
композитор Вячеслав Осьминин
звукооператор Дмитрий Фокин
Роли озвучили: Артём Карапетян, Елена Оболенская, В. Базынков, А. Емцов, В. Иваков, Ю. Дорошева, М. Рябкова.
Качество: DVDRip
Формат: AVI
Видео: 720x544 (1.32:1), 25 fps, XviD build 64 ~2254 kbps avg, 0.23 bit/pixel
Аудио: 48 kHz, AC3 Dolby Digital, 2/0 (L,R) ch, ~192 kbps
Субтитры: отсутствуют

Подробные технические данные

ОбщееПолное имя : D:\Мульты\Прекрасная лягушка.aviФормат : AVIФормат/Информация : Audio Video InterleaveРазмер файла : 244 МбайтПродолжительность : 13 м.Общий поток : 2457 Кбит/секПрограмма кодирования : VirtualDubMod 1.5.10.2 (build 2540/release)Библиотека кодирования : VirtualDubMod build 2540/release
ВидеоИдентификатор : 0Формат : MPEG-4 VisualПрофиль формата : Advanced [email protected]Параметр BVOP формата : 2Параметр QPel формата : НетПараметр GMC формата : Без точки переходаПараметр матрицы формата : ВыборочнаяИдентификатор кодека : XVIDИдентификатор кодека/Подсказка : XviDПродолжительность : 13 м.Битрейт : 2255 Кбит/секШирина : 720 пикселейВысота : 544 пикселяСоотношение сторон : 4:3Частота кадров : 25,000 кадров/секЦветовое пространство : YUVСубдискретизация насыщенности : 4:2:0Битовая глубина : 8 битТип развёртки : ПрогрессивнаяМетод сжатия : С потерямиБит/(Пиксели*Кадры) : 0.230Размер потока : 224 Мбайт (92%)Библиотека кодирования : XviD 64
АудиоИдентификатор : 1Формат : AC-3Формат/Информация : Audio Coding 3Расширение режима : CM (complete main)Идентификатор кодека : 2000Продолжительность : 13 м.Вид битрейта : ПостоянныйБитрейт : 192 Кбит/секКаналы : 2 каналаРасположение каналов : Front: L RЧастота : 48,0 КГцБитовая глубина : 16 битМетод сжатия : С потерямиРазмер потока : 19,1 Мбайт (8%)Выравнивание : Разделение по промежуткамПродолжительность промежутка : 40 мс. (1,00 видеокадр)Время предзагрузки промежутка : 500 мс.

Скриншоты

-Сравнение :
http://screenshotcomparison.com/comparison/171172-
Other forum [Profile] [PM]
Display posts from previous:    
Reply to topic

The time now is: Today 04:14

All times are GMT + 3 Hours



You cannot post new topics in this forum
You cannot reply to topics in this forum
You cannot edit your posts in this forum
You cannot delete your posts in this forum
You cannot vote in polls in this forum
You cannot attach files in this forum
You cannot download files in this forum