Today is a free download without charge Download

Дурак (Юрий Быков) [2014, Россия, Драма, Blu-ray Disc 1080p] Original Rus + Sub Eng

Reply to topic
 
Author
Message

Omen ®

Longevity: 8 years 10 months

Posts: 181086

Торрент-статистика

Post 29-Apr-2016 09:33

[Quote]

Дурак
«Успеет ли он спасти всех»
Год выпуска: 2014
Страна: Россия
Производство: ТПО Рок
Жанр: Драма
Продолжительность: 02:00:52
Перевод: не требуется
Оригинальная аудиодорожка: русский
Субтитры: английские
Режиссёр: Юрий Быков
В ролях: Артём Быстров, Наталья Суркова, Юрий Цурило, Борис Невзоров, Кирилл Полухин, Роман Майоров, Иван Брэд, Александр Коршунов, Ольга Самошина, Дарья Мороз и др.
Описание: Жизни 800 человек общежития висят буквально на волоске из-за безразличия местных властей. В любую секунду здание может рухнуть. И кто бы мог подумать, что судьбы людей окажутся в руках простого сантехника. Но удастся ли ему что-то изменить и предотвратить катастрофу?

Источник: HDBits
Сэмпл
Качество: Blu-ray
Формат: BDMV
Видео: MPEG-4 AVC: 22994 kbps / 1080p / 24.000 fps / 16:9
Аудио: Russian: DTS-HD MA / 2.0 / 48 kHz / 2046 kbps / 24-bit (DTS Core: 2.0 / 48 kHz / 1509 kbps / 24-bit) | Оригинальный

BDInfo

Disc Title: THE_FOOLDisc Size: 24 473 342 581 bytesProtection: AACSBD-Java: YesBDInfo: 0.5.8
Notes:
BDINFO HOME: Cinema Squid http://www.cinemasquid.com/blu-ray/tools/bdinfo
INCLUDES FORUMS REPORT FOR: AVS Forum Blu-ray Audio and Video Specifications Thread http://www.avsforum.com/avs-vb/showthread.php?t=1155731
********************PLAYLIST: 00003.MPLS********************
Код:
Total   Video
Title                                                           Codec   Length  Movie Size      Disc Size       Bitrate Bitrate Main Audio Track                          Secondary Audio Track
-----                                                           ------  ------- --------------  --------------  ------- ------- ------------------                        ---------------------
00003.MPLS                                                      AVC     2:00:52 24 010 825 728  24 473 342 581  26,49   22,99   DTS-HD Master 2.0 2046Kbps (48kHz/24-bit)
[/spoiler]
[code]
DISC INFO:
Disc Title:     THE_FOOL
Disc Size:      24 473 342 581 bytes
Protection:     AACS
BD-Java:        Yes
BDInfo:         0.5.8
PLAYLIST REPORT:
Name:                   00003.MPLS
Length:                 2:00:52.166 (h:m:s.ms)
Size:                   24 010 825 728 bytes
Total Bitrate:          26,49 Mbps
VIDEO:
Codec                   Bitrate             Description
-----                   -------             -----------
MPEG-4 AVC Video        22994 kbps          1080p / 24 fps / 16:9 / High Profile 4.1
AUDIO:
Codec                           Language        Bitrate         Description
-----                           --------        -------         -----------
DTS-HD Master Audio             Russian         2046 kbps       2.0 / 48 kHz / 2046 kbps / 24-bit (DTS Core: 2.0 / 48 kHz / 1509 kbps / 24-bit)
SUBTITLES:
Codec                           Language        Bitrate         Description
-----                           --------        -------         -----------
Presentation Graphics           English         34,538 kbps
FILES:
Name            Time In         Length          Size            Total Bitrate
----            -------         ------          ----            -------------
00003.M2TS      0:00:00.000     2:00:52.166     24 010 825 728  26 487
CHAPTERS:
Number          Time In         Length          Avg Video Rate  Max 1-Sec Rate  Max 1-Sec Time  Max 5-Sec Rate  Max 5-Sec Time  Max 10Sec Rate  Max 10Sec Time  Avg Frame Size  Max Frame Size  Max Frame Time
------          -------         ------          --------------  --------------  --------------  --------------  --------------  --------------  --------------  --------------  --------------  --------------
1               0:00:00.000     2:00:52.166     22 994 kbps     41 004 kbps     01:29:04.249    38 202 kbps     00:28:12.166    37 937 kbps     01:54:04.874    119 761 bytes   524 817 bytes   00:38:01.000
STREAM DIAGNOSTICS:
File            PID             Type            Codec           Language                Seconds                 Bitrate                 Bytes           Packets
----            ---             ----            -----           --------                --------------          --------------          -------------   -----
00003.M2TS      4113 (0x1011)   0x1B            AVC                                     7252,000                22 995                  20 844 606 275  113 386 558
00003.M2TS      4352 (0x1100)   0x86            DTS-HD MA       rus (Russian)           7252,000                2 046                   1 854 403 472   11 169 931
00003.M2TS      4608 (0x1200)   0x90            PGS             eng (English)           7252,000                35                      31 309 545      177 613
[/code]
QUICK SUMMARY:
Disc Title: THE_FOOLDisc Size: 24 473 342 581 bytesProtection: AACSBD-Java: YesPlaylist: 00003.MPLSSize: 24 010 825 728 bytesLength: 2:00:52.166Total Bitrate: 26,49 MbpsVideo: MPEG-4 AVC Video / 22994 kbps / 1080p / 24 fps / 16:9 / High Profile 4.1Audio: Russian / DTS-HD Master Audio / 2.0 / 48 kHz / 2046 kbps / 24-bit (DTS Core: 2.0 / 48 kHz / 1509 kbps / 24-bit)Subtitle: English / 34,538 kbps
********************PLAYLIST: 00004.MPLS********************
Код:
Total   Video
Title                                                           Codec   Length  Movie Size      Disc Size       Bitrate Bitrate Main Audio Track                          Secondary Audio Track
-----                                                           ------  ------- --------------  --------------  ------- ------- ------------------                        ---------------------
00004.MPLS                                                      AVC     0:01:48 349 274 112     24 473 342 581  25,75   22,76   DTS-HD Master 2.0 1608Kbps (48kHz/24-bit)
Код:
DISC INFO:
Disc Title:     THE_FOOL
Disc Size:      24 473 342 581 bytes
Protection:     AACS
BD-Java:        Yes
BDInfo:         0.5.8
PLAYLIST REPORT:
Name:                   00004.MPLS
Length:                 0:01:48.500 (h:m:s.ms)
Size:                   349 274 112 bytes
Total Bitrate:          25,75 Mbps
VIDEO:
Codec                   Bitrate             Description
-----                   -------             -----------
MPEG-4 AVC Video        22762 kbps          1080p / 24 fps / 16:9 / High Profile 4.1
AUDIO:
Codec                           Language        Bitrate         Description
-----                           --------        -------         -----------
DTS-HD Master Audio             Russian         1608 kbps       2.0 / 48 kHz / 1608 kbps / 24-bit (DTS Core: 2.0 / 48 kHz / 1509 kbps / 24-bit)
FILES:
Name            Time In         Length          Size            Total Bitrate
----            -------         ------          ----            -------------
00004.M2TS      0:00:00.000     0:01:48.500     349 274 112     25 753
CHAPTERS:
Number          Time In         Length          Avg Video Rate  Max 1-Sec Rate  Max 1-Sec Time  Max 5-Sec Rate  Max 5-Sec Time  Max 10Sec Rate  Max 10Sec Time  Avg Frame Size  Max Frame Size  Max Frame Time
------          -------         ------          --------------  --------------  --------------  --------------  --------------  --------------  --------------  --------------  --------------  --------------
1               0:00:00.000     0:01:48.500     22 762 kbps     52 355 kbps     00:00:06.458    33 604 kbps     00:00:06.416    31 609 kbps     00:00:06.416    118 551 bytes   439 241 bytes   00:00:38.833
STREAM DIAGNOSTICS:
File            PID             Type            Codec           Language                Seconds                 Bitrate                 Bytes           Packets
----            ---             ----            -----           --------                --------------          --------------          -------------   -----
00004.M2TS      4113 (0x1011)   0x1B            AVC                                     108,333                 22 797                  308 706 156     1 679 234
00004.M2TS      4352 (0x1100)   0x86            DTS-HD MA       rus (Russian)           108,333                 1 611                   21 813 792      135 034
QUICK SUMMARY:
Disc Title: THE_FOOLDisc Size: 24 473 342 581 bytesProtection: AACSBD-Java: YesPlaylist: 00004.MPLSSize: 349 274 112 bytesLength: 0:01:48.500Total Bitrate: 25,75 MbpsVideo: MPEG-4 AVC Video / 22762 kbps / 1080p / 24 fps / 16:9 / High Profile 4.1Audio: Russian / DTS-HD Master Audio / 2.0 / 48 kHz / 1608 kbps / 24-bit (DTS Core: 2.0 / 48 kHz / 1509 kbps / 24-bit)
********************PLAYLIST: 01003.MPLS********************
Код:
Total   Video
Title                                                           Codec   Length  Movie Size      Disc Size       Bitrate Bitrate Main Audio Track                          Secondary Audio Track
-----                                                           ------  ------- --------------  --------------  ------- ------- ------------------                        ---------------------
01003.MPLS                                                      AVC     0:01:48 349 274 112     24 473 342 581  25,75   22,76   DTS-HD Master 2.0 1608Kbps (48kHz/24-bit)
Код:
DISC INFO:
Disc Title:     THE_FOOL
Disc Size:      24 473 342 581 bytes
Protection:     AACS
BD-Java:        Yes
BDInfo:         0.5.8
PLAYLIST REPORT:
Name:                   01003.MPLS
Length:                 0:01:48.500 (h:m:s.ms)
Size:                   349 274 112 bytes
Total Bitrate:          25,75 Mbps
VIDEO:
Codec                   Bitrate             Description
-----                   -------             -----------
MPEG-4 AVC Video        22762 kbps          1080p / 24 fps / 16:9 / High Profile 4.1
AUDIO:
Codec                           Language        Bitrate         Description
-----                           --------        -------         -----------
DTS-HD Master Audio             Russian         1608 kbps       2.0 / 48 kHz / 1608 kbps / 24-bit (DTS Core: 2.0 / 48 kHz / 1509 kbps / 24-bit)
FILES:
Name            Time In         Length          Size            Total Bitrate
----            -------         ------          ----            -------------
00004.M2TS      0:00:00.000     0:01:48.500     349 274 112     25 753
CHAPTERS:
Number          Time In         Length          Avg Video Rate  Max 1-Sec Rate  Max 1-Sec Time  Max 5-Sec Rate  Max 5-Sec Time  Max 10Sec Rate  Max 10Sec Time  Avg Frame Size  Max Frame Size  Max Frame Time
------          -------         ------          --------------  --------------  --------------  --------------  --------------  --------------  --------------  --------------  --------------  --------------
1               0:00:00.000     0:01:47.000     23 080 kbps     52 355 kbps     00:00:06.458    33 604 kbps     00:00:06.416    31 609 kbps     00:00:06.416    120 159 bytes   439 241 bytes   00:00:38.833
2               0:01:47.000     0:00:01.500     92 kbps         109 kbps        00:01:47.166    0 kbps          00:00:00.000    0 kbps          00:00:00.000    495 bytes       2 425 bytes     00:01:47.208
STREAM DIAGNOSTICS:
File            PID             Type            Codec           Language                Seconds                 Bitrate                 Bytes           Packets
----            ---             ----            -----           --------                --------------          --------------          -------------   -----
00004.M2TS      4113 (0x1011)   0x1B            AVC                                     108,333                 22 797                  308 706 156     1 679 234
00004.M2TS      4352 (0x1100)   0x86            DTS-HD MA       rus (Russian)           108,333                 1 611                   21 813 792      135 034
QUICK SUMMARY:
Disc Title: THE_FOOLDisc Size: 24 473 342 581 bytesProtection: AACSBD-Java: YesPlaylist: 01003.MPLSSize: 349 274 112 bytesLength: 0:01:48.500Total Bitrate: 25,75 MbpsVideo: MPEG-4 AVC Video / 22762 kbps / 1080p / 24 fps / 16:9 / High Profile 4.1Audio: Russian / DTS-HD Master Audio / 2.0 / 48 kHz / 1608 kbps / 24-bit (DTS Core: 2.0 / 48 kHz / 1509 kbps / 24-bit)
********************PLAYLIST: 00001.MPLS********************
Код:
Total   Video
Title                                                           Codec   Length  Movie Size      Disc Size       Bitrate Bitrate Main Audio Track                          Secondary Audio Track
-----                                                           ------  ------- --------------  --------------  ------- ------- ------------------                        ---------------------
00001.MPLS                                                      AVC     0:01:11 89 346 048      24 473 342 581  10,06   9,55
Код:
DISC INFO:
Disc Title:     THE_FOOL
Disc Size:      24 473 342 581 bytes
Protection:     AACS
BD-Java:        Yes
BDInfo:         0.5.8
PLAYLIST REPORT:
Name:                   00001.MPLS
Length:                 0:01:11.071 (h:m:s.ms)
Size:                   89 346 048 bytes
Total Bitrate:          10,06 Mbps
VIDEO:
Codec                   Bitrate             Description
-----                   -------             -----------
MPEG-4 AVC Video        9551 kbps           1080p / 23,976 fps / 16:9 / High Profile 4.1
FILES:
Name            Time In         Length          Size            Total Bitrate
----            -------         ------          ----            -------------
00001.M2TS      0:00:00.000     0:01:11.071     89 346 048      10 057
CHAPTERS:
Number          Time In         Length          Avg Video Rate  Max 1-Sec Rate  Max 1-Sec Time  Max 5-Sec Rate  Max 5-Sec Time  Max 10Sec Rate  Max 10Sec Time  Avg Frame Size  Max Frame Size  Max Frame Time
------          -------         ------          --------------  --------------  --------------  --------------  --------------  --------------  --------------  --------------  --------------  --------------
1               0:00:00.000     0:01:11.071     9 551 kbps      10 664 kbps     00:00:01.501    9 926 kbps      00:00:01.001    9 800 kbps      00:00:01.001    49 792 bytes    347 908 bytes   00:01:03.563
STREAM DIAGNOSTICS:
File            PID             Type            Codec           Language                Seconds                 Bitrate                 Bytes           Packets
----            ---             ----            -----           --------                --------------          --------------          -------------   -----
00001.M2TS      4113 (0x1011)   0x1B            AVC                                     70,946                  9 567                   84 846 269      462 204
QUICK SUMMARY:
Disc Title: THE_FOOLDisc Size: 24 473 342 581 bytesProtection: AACSBD-Java: YesPlaylist: 00001.MPLSSize: 89 346 048 bytesLength: 0:01:11.071Total Bitrate: 10,06 MbpsVideo: MPEG-4 AVC Video / 9551 kbps / 1080p / 23,976 fps / 16:9 / High Profile 4.1
********************PLAYLIST: 01001.MPLS********************
Код:
Total   Video
Title                                                           Codec   Length  Movie Size      Disc Size       Bitrate Bitrate Main Audio Track                          Secondary Audio Track
-----                                                           ------  ------- --------------  --------------  ------- ------- ------------------                        ---------------------
01001.MPLS                                                      AVC     0:01:11 89 346 048      24 473 342 581  10,06   9,55
Код:
DISC INFO:
Disc Title:     THE_FOOL
Disc Size:      24 473 342 581 bytes
Protection:     AACS
BD-Java:        Yes
BDInfo:         0.5.8
PLAYLIST REPORT:
Name:                   01001.MPLS
Length:                 0:01:11.071 (h:m:s.ms)
Size:                   89 346 048 bytes
Total Bitrate:          10,06 Mbps
VIDEO:
Codec                   Bitrate             Description
-----                   -------             -----------
MPEG-4 AVC Video        9551 kbps           1080p / 23,976 fps / 16:9 / High Profile 4.1
FILES:
Name            Time In         Length          Size            Total Bitrate
----            -------         ------          ----            -------------
00001.M2TS      0:00:00.000     0:01:11.071     89 346 048      10 057
CHAPTERS:
Number          Time In         Length          Avg Video Rate  Max 1-Sec Rate  Max 1-Sec Time  Max 5-Sec Rate  Max 5-Sec Time  Max 10Sec Rate  Max 10Sec Time  Avg Frame Size  Max Frame Size  Max Frame Time
------          -------         ------          --------------  --------------  --------------  --------------  --------------  --------------  --------------  --------------  --------------  --------------
1               0:00:00.000     0:00:01.000     2 426 kbps      0 kbps          00:00:00.000    0 kbps          00:00:00.000    0 kbps          00:00:00.000    12 144 bytes    291 817 bytes   00:00:01.000
2               0:00:01.000     0:00:49.049     9 700 kbps      10 664 kbps     00:00:01.501    9 926 kbps      00:00:01.001    9 800 kbps      00:00:01.001    50 570 bytes    347 906 bytes   00:00:16.015
3               0:00:50.050     0:00:21.021     9 542 kbps      9 674 kbps      00:01:10.028    9 674 kbps      00:01:06.024    9 674 kbps      00:01:01.019    49 845 bytes    347 908 bytes   00:01:03.563
STREAM DIAGNOSTICS:
File            PID             Type            Codec           Language                Seconds                 Bitrate                 Bytes           Packets
----            ---             ----            -----           --------                --------------          --------------          -------------   -----
00001.M2TS      4113 (0x1011)   0x1B            AVC                                     70,946                  9 567                   84 846 269      462 204
QUICK SUMMARY:
Disc Title: THE_FOOLDisc Size: 24 473 342 581 bytesProtection: AACSBD-Java: YesPlaylist: 01001.MPLSSize: 89 346 048 bytesLength: 0:01:11.071Total Bitrate: 10,06 MbpsVideo: MPEG-4 AVC Video / 9551 kbps / 1080p / 23,976 fps / 16:9 / High Profile 4.1

Скриншоты

         
Other forum [Profile] [PM]
Display posts from previous:    
Reply to topic

The time now is: Today 12:57

All times are GMT + 3 Hours



You cannot post new topics in this forum
You cannot reply to topics in this forum
You cannot edit your posts in this forum
You cannot delete your posts in this forum
You cannot vote in polls in this forum
You cannot attach files in this forum
You cannot download files in this forum