Today is a free download without charge Download

Помню – не помню! (Василий Ровенский) [2016, Россия, комедия, WEB-DL 1080p]

Reply to topic
 
Author
Message

Omen ®

Longevity: 8 years 10 months

Posts: 181086

Торрент-статистика

Post 28-Apr-2016 21:00

[Quote]

-Помню –
не помню!
«Почувствуй себя в чужом теле!»- Страна: Россия
Жанр: Комедия
Год выпуска: 2016
Продолжительность: 01:15:30-Перевод: Не требуется
Cубтитры: нет
Оригинальная аудиодорожка: русский-Режиссер: Василий Ровенский-В ролях: Наталия Медведева, Полина Максимова, Константин Крюков, Людмила Артемьева, Анна Ардова, Александр Демидов, Сергей Бадюк, Вадим Демчог, Анна Хилькевич, Дмитрий Хрусталёв-Описание: Живет себе на свете скромная девушка Алена, работает в библиотеке и мечтает сыграть Джульетту в самодеятельном театре. Она и представить себе не может, что буквально завтра ее жизнь кардинально изменится. Столкнувшись на улице с шикарной блондинкой, она теряет сознание и… приходит в себя в больнице… в чужом теле.- -Тип релиза: WEB-DL 1080p
Контейнер: MKV
Видео: AVC, 1 920x804, 24fps, 4 452 kbps, 0.120 Bits/(Pixel*Frame)
Аудио: AC3, 48kHz 6ch 384kbps-

MediaInfo

Код:
General
Unique ID                   : 243879575995277943626574234413693721704 (0xB7797F715A52AC62A8D614DB34ECDC68)
Complete name               : D:\Фильмы\Помню – не помню! 2016 Webdl 1080p.mkv
Format                      : Matroska
Format version              : Version 4 / Version 2
File size                   : 2.55 GiB
Duration                    : 1h 15mn
Overall bit rate            : 4 838 Kbps
Encoded date                : UTC 2016-04-27 19:07:23
Writing application         : mkvmerge v8.3.0 ('Over the Horizon') 64bit
Writing library             : libebml v1.3.1 + libmatroska v1.4.2
Video
ID                          : 1
Format                      : AVC
Format/Info                 : Advanced Video Codec
Format profile              : [email protected]
Format settings, CABAC      : Yes
Format settings, ReFrames   : 5 frames
Codec ID                    : V_MPEG4/ISO/AVC
Duration                    : 1h 15mn
Bit rate                    : 4 452 Kbps
Width                       : 1 920 pixels
Height                      : 804 pixels
Display aspect ratio        : 2.40:1
Frame rate mode             : Constant
Frame rate                  : 24.000 fps
Color space                 : YUV
Chroma subsampling          : 4:2:0
Bit depth                   : 8 bits
Scan type                   : Progressive
Bits/(Pixel*Frame)          : 0.120
Stream size                 : 2.35 GiB (92%)
Language                    : English
Default                     : Yes
Forced                      : No
Color range                 : Limited
Color primaries             : BT.709
Transfer characteristics    : BT.709
Matrix coefficients         : BT.709
Audio
ID                          : 2
Format                      : AC-3
Format/Info                 : Audio Coding 3
Mode extension              : CM (complete main)
Format settings, Endianness : Big
Codec ID                    : A_AC3
Duration                    : 1h 15mn
Bit rate mode               : Constant
Bit rate                    : 384 Kbps
Channel(s)                  : 6 channels
Channel positions           : Front: L C R, Side: L R, LFE
Sampling rate               : 48.0 KHz
Frame rate                  : 31.250 fps (1536 spf)
Compression mode            : Lossy
Stream size                 : 207 MiB (8%)
Language                    : Russian
Default                     : Yes
Forced                      : No
Menu
00:00:00.000                : en:Глава 1
00:05:14.333                : en:Глава 2
00:11:59.749                : en:Глава 3
00:18:11.499                : en:Глава 4
00:23:58.582                : en:Глава 5
00:29:02.707                : en:Глава 6
00:34:57.665                : en:Глава 7
00:40:04.623                : en:Глава 8
00:45:29.623                : en:Глава 9
00:51:28.456                : en:Глава 10
00:56:31.831                : en:Глава 11
01:03:10.664                : en:Глава 12
-

Скриншоты

-- -
-
Other forum [Profile] [PM]
Display posts from previous:    
Reply to topic

The time now is: Today 13:12

All times are GMT + 3 Hours



You cannot post new topics in this forum
You cannot reply to topics in this forum
You cannot edit your posts in this forum
You cannot delete your posts in this forum
You cannot vote in polls in this forum
You cannot attach files in this forum
You cannot download files in this forum