Today is a free download without charge Download

Жажда (Дмитрий Тюрин) [2013, Россия, драма, HDTV 1080i]

Reply to topic
 
Author
Message

Omen ®

Longevity: 8 years 10 months

Posts: 181086

Торрент-статистика

Post 28-Apr-2016 18:00

[Quote]

Жажда- -Страна: Россия
Жанр: драма
Год выпуска: 2013
Производство: «Всемирные Русские Студии»
Продолжительность: 01:35:19
Оригинальная аудиодорожка: русский
Cубтитры: нет-Режиссер: Дмитрий Тюрин-В ролях:
Михаил Грубов, Сергей Лавыгин, Роман Курцын, Никита Остриков, Алексей Гуськов, Галина Бокашевская,
Анна Банщикова, Светлана Смирнова-Марцинкевич, Георгий Соловьев, Андрей Попович-Описание:
Костя, талантливый художник, возвращается из Чечни с обожжённым лицом и стойкой обидой на жизнь. Он замыкается в себе, мало с кем общается и рисует мрачные портреты в духе Гойи. Однажды бесследно пропадает его фронтовой друг, который во время боевой операции спас ему жизнь. Костя вместе с двумя товарищами отправляется на его поиски. Так, ведомый обстоятельствами, он начинает выходить за пределы замкнутого круга и пытается увидеть мир под другим углом.-Возраст: 18+-Качество: HDTV (1080i)
Формат: TS
Видео кодек: AVC
Аудио кодек: MPEG Audio 2

Видео: AVC, 1920 х 1080 (16:9), 25,000 кадр/сек, 6 654 Кбит/сек, 0.128 bit/pixel
Аудио: MPEG Audio 2, 48000 Hz, 192 Kbps, 2 канала
-

MediaInfo

General
ID : 1 (0x1)
Complete name : D:\Жажда HDTV (1080i)\Жажда HDTV (1080i).ts
Format : MPEG-TS
File size : 4.80 GiB
Duration : 1h 35mn
Overall bit rate mode : Variable
Overall bit rate : 7 204 Kbps
Video
ID : 67 (0x43)
Menu ID : 1 (0x1)
Format : AVC
Format/Info : Advanced Video Codec
Format profile : [email protected]
Format settings, CABAC : Yes
Format settings, ReFrames : 2 frames
Format settings, GOP : M=3, N=30
Codec ID : 27
Duration : 1h 35mn
Bit rate : 6 654 Kbps
Width : 1 920 pixels
Height : 1 080 pixels
Display aspect ratio : 16:9
Frame rate : 25.000 fps
Color space : YUV
Chroma subsampling : 4:2:0
Bit depth : 8 bits
Scan type : MBAFF
Scan type, store method : Interleaved fields
Scan order : Top Field First
Bits/(Pixel*Frame) : 0.128
Stream size : 4.43 GiB (92%)
Color range : Limited
Color primaries : BT.709
Transfer characteristics : BT.709
Matrix coefficients : BT.709
Audio
ID : 301 (0x12D)
Menu ID : 1 (0x1)
Format : MPEG Audio
Format version : Version 1
Format profile : Layer 2
Codec ID : 3
Duration : 1h 35mn
Bit rate mode : Constant
Bit rate : 192 Kbps
Channel(s) : 2 channels
Sampling rate : 48.0 KHz
Compression mode : Lossy
Delay relative to video : -80ms
Stream size : 131 MiB (3%)
Language : English

Скриншоты


-Раздаю до первых 5-ти скачавших, на раздачи не возвращаюсь...-
Other forum [Profile] [PM]
Display posts from previous:    
Reply to topic

The time now is: Today 12:14

All times are GMT + 3 Hours



You cannot post new topics in this forum
You cannot reply to topics in this forum
You cannot edit your posts in this forum
You cannot delete your posts in this forum
You cannot vote in polls in this forum
You cannot attach files in this forum
You cannot download files in this forum