Today is a free download without charge Download

КЛОД ДЕБЮССИ. ШУ-ШУ (цикл «СКАЗКИ СТАРОГО ПИАНИНО») (Андрей Ушаков) [2014, Россия, Беларусь, мультфильм, DVDScreener]

Reply to topic
 
Author
Message

Omen ®

Longevity: 7 years 11 months

Posts: 181087

Торрент-статистика

Post 28-Apr-2016 15:00

[Quote]

КЛОД ДЕБЮССИ. ШУ-ШУ (цикл «СКАЗКИ СТАРОГО ПИАНИНО»)
Страна: Россия, Беларусь
Жанр: мультфильм
Продолжительность: 00:12:34
Год выпуска: 2014
Русские субтитры: нет
Режиссёр: Андрей Ушаков
Описание: Жизнь и музыка Клода Дебюсси переданы через восприятие маленькой дочери, которую он ласково называл Шу-Шу.
Доп. информация: Фильм - участник конкурсной программы фестиваля Суздаль-2015
Качество: DVDScreener
Формат: AVI
Видео: DIVX, 720x408, 25,00 fps, 885kbps
Аудио: MPEG Layer 3, 48kHz, 2ch, 192kbps
Субтитры: отсутствуют

Подробные технические данные

Полное имя : Дебюсси.aviФормат : AVIФормат/Информация : Audio Video InterleaveРазмер файла : 97,7 МбайтПродолжительность : 12 м.Общий поток : 1086 Кбит/секПрограмма кодирования : VirtualDubMod 1.5.10.3 | www.virtualdub-fr.org || (build 2550/release)Библиотека кодирования : VirtualDubMod build 2550/release
ВидеоИдентификатор : 0Формат : MPEG-4 VisualПрофиль формата : Advanced [email protected]Параметр BVOP формата : 2Параметр QPel формата : НетПараметр GMC формата : Без точки переходаПараметр матрицы формата : Default (H.263)Режим смешивания : Сжатый битовый потокИдентификатор кодека : XVIDИдентификатор кодека/Подсказка : XviDПродолжительность : 12 м.Битрейт : 885 Кбит/секШирина : 720 пикселейВысота : 408 пикселейСоотношение сторон : 16:9Частота кадров : 25,000 кадров/секЦветовое пространство : YUVСубдискретизация насыщенности : 4:2:0Битовая глубина : 8 битТип развёртки : ПрогрессивнаяМетод сжатия : С потерямиБит/(Пиксели*Кадры) : 0.120Размер потока : 79,6 Мбайт (81%)Библиотека кодирования : XviD 1.2.1 (UTC 2008-12-04)
АудиоИдентификатор : 1Формат : MPEG AudioВерсия формата : Version 1Профиль формата : Layer 3Идентификатор кодека : 55Идентификатор кодека/Подсказка : MP3Продолжительность : 12 м.Вид битрейта : ПостоянныйБитрейт : 192 Кбит/секКаналы : 2 каналаЧастота : 48,0 КГцМетод сжатия : С потерямиРазмер потока : 17,3 Мбайт (18%)Выравнивание : Соединение по промежуткамПродолжительность промежутка : 40 мс. (1,00 видеокадр)Время предзагрузки промежутка : 504 мс.Библиотека кодирования : LAME3.99rНастройки программы : -m s -V 4 -q 0 -lowpass 18.6 -b 192

Скриншоты



Other forum [Profile] [PM]
Display posts from previous:    
Reply to topic

The time now is: Today 18:51

All times are GMT + 3 Hours



You cannot post new topics in this forum
You cannot reply to topics in this forum
You cannot edit your posts in this forum
You cannot delete your posts in this forum
You cannot vote in polls in this forum
You cannot attach files in this forum
You cannot download files in this forum