Today is a free download without charge Download

Контрибуция (Сергей Снежкин) [2016, Россия, история, детектив, WEB-DL 1080p]

Reply to topic
 
Author
Message

Omen ®

Longevity: 8 years 10 months

Posts: 181086

Торрент-статистика

Post 28-Apr-2016 09:00

[Quote]

Контрибуция- -Страна: Россия
Жанр: история, детектив
Год выпуска: 2016
Производство: «Ленфильм»
Продолжительность: 02:42:15
Оригинальная аудиодорожка: русский
Cубтитры: нет-Режиссер: Сергей Снежкин-В ролях:
Максим Матвеев, Елизавета Боярская, Надежда Толубеева, Илья Носков, Евгений Дятлов,
Константин Воробьёв, Артур Ваха, Юрий Ицков, Игорь Черневич, Сергей Перегудов-Описание:
Действие «Контрибуции» происходит в 1918 году в Перми. Среднесибирский белогвардейский корпус под командованием молодого генерала Анатолия Николаевича Пепеляева захватывает город. Армия измотана, не хватает патронов, обмундирования, провианта. Генерал приглашает пермских купцов с целью собрать деньги для нужд армии. Богатая вдова Чагина приносит в качестве контрибуции дорогой бриллиант. На следующий день бриллиант таинственным образом исчезает. На поиски привлекают приговоренного к смерти «красного» следователя Андрея Мурзина, который должен найти бриллиант в обмен на помилование.-Возраст: 12+-Качество: WEB-DL 1080p
Формат: MKV
Видео кодек: AVC
Аудио кодек: AC3

Видео: AVC, 1920 х 816 (16:9), 25,000 кадр/сек, 4 849 Кбит/сек, 0.124 bit/pixel
Аудио: AC3, 48000 Hz, 192 Kbps, 2 канала
-

MediaInfo

General
Unique ID : 174572428435965420435705325357031679034 (0x83556D3EC31376A6B8410BACA75EE43A)
Complete name : D:\Контрибуция (Полная версия) WEB-DL (1080p)\Контрибуция (Полная версия) WEB-DL (1080p).mkv
Format : Matroska
Format version : Version 2
File size : 5.83 GiB
Duration : 2h 42mn
Overall bit rate : 5 144 Kbps
Movie name : Kontribucija.2016.WEB-DL.(1080p).ExKinoRay
Encoded date : UTC 2016-04-26 13:42:05
Writing application : mkvmerge v5.8.0 ('No Sleep / Pillow') built on Sep 2 2012 15:37:04
Writing library : libebml v1.2.3 + libmatroska v1.3.0
Video
ID : 1
Format : AVC
Format/Info : Advanced Video Codec
Format profile : [email protected]
Format settings, CABAC : Yes
Format settings, ReFrames : 4 frames
Codec ID : V_MPEG4/ISO/AVC
Duration : 2h 42mn
Bit rate : 4 849 Kbps
Width : 1 920 pixels
Height : 816 pixels
Display aspect ratio : 2.35:1
Frame rate mode : Constant
Frame rate : 25.000 fps
Color space : YUV
Chroma subsampling : 4:2:0
Bit depth : 8 bits
Scan type : Progressive
Bits/(Pixel*Frame) : 0.124
Stream size : 5.50 GiB (94%)
Language : Russian
Default : Yes
Forced : Yes
Audio
ID : 2
Format : AC-3
Format/Info : Audio Coding 3
Mode extension : CM (complete main)
Format settings, Endianness : Big
Codec ID : A_AC3
Duration : 2h 42mn
Bit rate mode : Constant
Bit rate : 192 Kbps
Channel(s) : 2 channels
Channel positions : Front: L R
Sampling rate : 48.0 KHz
Frame rate : 31.250 fps (1536 spf)
Compression mode : Lossy
Stream size : 223 MiB (4%)
Language : Russian
Default : Yes
Forced : Yes

Скриншоты


-Раздаю до первых 5-ти скачавших, на раздачи не возвращаюсь...-
Other forum [Profile] [PM]
Display posts from previous:    
Reply to topic

The time now is: Today 14:54

All times are GMT + 3 Hours



You cannot post new topics in this forum
You cannot reply to topics in this forum
You cannot edit your posts in this forum
You cannot delete your posts in this forum
You cannot vote in polls in this forum
You cannot attach files in this forum
You cannot download files in this forum