Today is a free download without charge Download

Не бойся, я с тобой! 1919 (Юлий Гусман) [2013, Азербайджан, Россия, приключения, боевик, HDTV 1080i]

Reply to topic
 
Author
Message

Omen ®

Longevity: 8 years 10 months

Posts: 181086

Торрент-статистика

Post 27-Apr-2016 15:00

[Quote]

Не бойся, я с тобой! 1919- -Страна: Азербайджан, Россия
Жанр: приключения, боевик
Год выпуска: 2013
Производство: «Группа компаний «ВайТ Медиа», «Азербайджанфильм» им. Дж. Джабарлы»
Продолжительность: 01:49:26
Оригинальная аудиодорожка: русский
Cубтитры: нет-Режиссер: Юлий Гусман-В ролях:
Полад Бюльбюль оглы, Лев Дуров, Мухтарбек Кантемиров, Эльдар Гасымов, Бахрам Багирзаде, Михаил Ефремов,
Кристина Гюлалиева, Тимур Бадалбейли, Игорь Золотовицкий, Заур Шафиев, Владимир Долинский, Гамида Омарова,
Анатолий Равикович, Лейла Бюль-Бюль, Эдгард Запашный, Галина Коньшина, Гаджимурад Ягизаров, Нюбар Новрузова,
Нурия Ахмедли, Николай Ефремов (II)-Описание:
Действие фильма разворачивается во время короткого, но яркого периода первой демократической революции на Востоке, в Азербайджане, в 1919 году.
Жизнь разметала друзей: Теймур стал депутатом азербайджанского независимого парламента, Рустам служит в Красной армии, а всеми любимый Сан Саныч осуществил наконец свою мечту и, поселившись в маленьком доме на берегу теплого Каспийского моря, открыл школу восточных единоборств. Друзей разделяют километры, границы и идеологии. Но неожиданно у Теймура похищают дочь Ширин. И вновь, как и тридцать лет назад, три «рыцаря без страха и упрека» воссоединяются, помогая освободить девушку и дать возможность двум влюбленным людям, Фархаду и Ширин, детям непримиримых врагов, обрести свое счастье.-Возраст: 12+-Качество: HDTV (1080i)
Формат: TS
Видео кодек: AVC
Аудио кодек: MPEG Audio 2

Видео: AVC, 1920 х 1080 (16:9), 25,000 кадр/сек, 7 547 Кбит/сек, 0.146 bit/pixel
Аудио: MPEG Audio 2, 48000 Hz, 192 Kbps, 2 канала
-

MediaInfo

General
ID : 1 (0x1)
Complete name : D:\Не бойся, я с тобой! 1919 HDTV (1080i)\Не бойся, я с тобой! 1919 HDTV (1080i).ts
Format : MPEG-TS
File size : 6.22 GiB
Duration : 1h 49mn
Overall bit rate mode : Variable
Overall bit rate : 8 143 Kbps
Video
ID : 201 (0xC9)
Menu ID : 2201 (0x899)
Format : AVC
Format/Info : Advanced Video Codec
Format profile : [email protected]
Format settings, CABAC : Yes
Format settings, ReFrames : 4 frames
Format settings, GOP : M=4, N=28
Codec ID : 27
Duration : 1h 49mn
Bit rate : 7 547 Kbps
Width : 1 920 pixels
Height : 1 080 pixels
Display aspect ratio : 16:9
Frame rate : 25.000 fps
Standard : Component
Color space : YUV
Chroma subsampling : 4:2:0
Bit depth : 8 bits
Scan type : Interlaced
Scan type, store method : Separated fields
Scan order : Top Field First
Bits/(Pixel*Frame) : 0.146
Stream size : 5.77 GiB (93%)
Color range : Limited
Color primaries : BT.709
Transfer characteristics : BT.709
Matrix coefficients : BT.709
Audio
ID : 301 (0x12D)
Menu ID : 2201 (0x899)
Format : MPEG Audio
Format version : Version 1
Format profile : Layer 2
Codec ID : 3
Duration : 1h 49mn
Bit rate mode : Constant
Bit rate : 192 Kbps
Channel(s) : 2 channels
Sampling rate : 48.0 KHz
Compression mode : Lossy
Stream size : 150 MiB (2%)
Language : English

Скриншоты


-Раздаю до первых 5-ти скачавших, на раздачи не возвращаюсь...-
Other forum [Profile] [PM]
Display posts from previous:    
Reply to topic

The time now is: Today 20:49

All times are GMT + 3 Hours



You cannot post new topics in this forum
You cannot reply to topics in this forum
You cannot edit your posts in this forum
You cannot delete your posts in this forum
You cannot vote in polls in this forum
You cannot attach files in this forum
You cannot download files in this forum