Today is a free download without charge Download

Шлёп, шмяк, бряк! (Дели Батырова) [1988, детский короткометражный мультфильм, кукольный, Telesync]

Reply to topic
 
Author
Message

Omen ®

Longevity: 7 years 11 months

Posts: 181087

Торрент-статистика

Post 24-Apr-2016 21:03

[Quote]

Шлёп, шмяк, бряк!- Страна: СССР
Студия: Узбекфильм
Жанр: детский короткометражный мультфильм, кукольный
Год выпуска: 1988
Продолжительность: 00:09:58-Режиссер: Дели Батырова-Описание: О добром сказочном старичке, помирившем родителей девочки.-Доп. информация: За любезно предоставленную оцифровку большое спасибо persi-kot .--Тип релиза: Telesync
Контейнер: MPG
Видео: 720x576 (4:3) @ 768x576, 25.000 fps, MPEG-2 Video, ~4653 Kbps, 0.449 bits/pixel
Аудио: Русский, 48.0 KHz, AC3, 2 ch, 256 Kbps
Cубтитры: нет

MediaInfo

GeneralComplete name : Шлёп, шмяк, бряк! 1988 Узбекфильм.mpgFormat : MPEG-PSFile size : 357 MiBDuration : 9mn 58sOverall bit rate mode : VariableOverall bit rate : 5 005 Kbps
VideoID : 224 (0xE0)Format : MPEG VideoFormat version : Version 2Format profile : [email protected] settings, BVOP : YesFormat settings, Matrix : CustomFormat settings, GOP : N=12Format settings, picture structure : FrameDuration : 9mn 58sBit rate mode : VariableBit rate : 4 649 KbpsMaximum bit rate : 9 400 KbpsWidth : 720 pixelsHeight : 576 pixelsDisplay aspect ratio : 4:3Frame rate : 25.000 fpsStandard : PALColor space : YUVChroma subsampling : 4:2:0Bit depth : 8 bitsScan type : InterlacedScan order : Top Field FirstCompression mode : LossyBits/(Pixel*Frame) : 0.448Time code of first frame : 00:00:00:00Time code source : Group of pictures headerGOP, Open/Closed : ClosedStream size : 332 MiB (93%)Color primaries : BT.601 PALTransfer characteristics : BT.470 System B, BT.470 System GMatrix coefficients : BT.601
AudioID : 189 (0xBD)-128 (0x80)Format : AC-3Format/Info : Audio Coding 3Mode extension : CM (complete main)Format settings, Endianness : BigMuxing mode : DVD-VideoDuration : 9mn 58sBit rate mode : ConstantBit rate : 256 KbpsChannel(s) : 2 channelsChannel positions : Front: L RSampling rate : 48.0 KHzFrame rate : 31.250 fps (1536 spf)Compression mode : LossyStream size : 18.3 MiB (5%)

Скриншоты

Other forum [Profile] [PM]
Display posts from previous:    
Reply to topic

The time now is: Today 11:51

All times are GMT + 3 Hours



You cannot post new topics in this forum
You cannot reply to topics in this forum
You cannot edit your posts in this forum
You cannot delete your posts in this forum
You cannot vote in polls in this forum
You cannot attach files in this forum
You cannot download files in this forum