Today is a free download without charge Download

Дора-Дора-помидора (Инесса Ковалевская) [2001, Россия, рисованный мультфильм, WEBRip]

Reply to topic
 
Author
Message

Omen ®

Longevity: 7 years 11 months

Posts: 181087

Торрент-статистика

Post 24-Apr-2016 12:00

[Quote]

Дора-Дора-помидора
Страна: Россия
Жанр: рисованный мультфильм
Продолжительность: 00:09:51
Год выпуска: 2001
Русские субтитры: нет
Режиссёр: Инесса Ковалевская
Роли озвучивали: Елена Степаненко,Вячеслав Войнаровский,Галина Коньшина
Описание: Обитатели деревенского двора - котенок, пес и кролик в поисках "злодея", укравшего у них косточку , молоко и морковку, не заметили, как из детской считалки у них неожиданно сложилась "грозная" песенка.
Доп. информация: «Союзмультфильм»
сценаристы: Инесса Ковалевская
художник-постановщик:Л.Шварцман
композитор:Владимир Шаинский
звукооператор:В.Орел
редактор:Н.Абрамова
Качество: WEBRip
Формат: AVI
Видео: 704x528 (1.33:1), 25 fps, XviD MPEG-4 ~2099 kbps avg, 0.23 bit/pixel
Аудио: 48 kHz, AC3 Dolby Digital, 2/0 (L,R) ch, ~128.00 kbps avg
Субтитры: нет

Подробные технические данные

Format : AVIFormat/Info : Audio Video InterleaveFile size : 157 MiBDuration : 9mn 51sOverall bit rate : 2 234 KbpsMovie name : dora-doraWriting application : VirtualDubModRus 1.5.10.2 (build 2542/release)Writing library : VirtualDubMod build 2542/release
VideoID : 0Format : MPEG-4 VisualFormat profile : Advanced [email protected] settings, BVOP : 2Format settings, QPel : NoFormat settings, GMC : No warppointsFormat settings, Matrix : CustomCodec ID : XVIDCodec ID/Hint : XviDDuration : 9mn 51sBit rate : 2 099 KbpsWidth : 704 pixelsHeight : 528 pixelsDisplay aspect ratio : 5:4Original display aspect ratio : 4:3Frame rate : 25.000 fpsColor space : YUVChroma subsampling : 4:2:0Bit depth : 8 bitsScan type : ProgressiveCompression mode : LossyBits/(Pixel*Frame) : 0.226Stream size : 148 MiB (94%)Writing library : XviD 65
AudioID : 1Format : AC-3Format/Info : Audio Coding 3Mode extension : CM (complete main)Format settings, Endianness : BigCodec ID : 2000Duration : 9mn 50sBit rate mode : ConstantBit rate : 128 KbpsChannel(s) : 2 channelsChannel positions : Front: L RSampling rate : 48.0 KHzBit depth : 16 bitsCompression mode : LossyStream size : 9.02 MiB (6%)Alignment : Aligned on interleavesInterleave, duration : 96 ms (2.40 video frames)Interleave, preload duration : 576 ms

сравнение с TVRip

Сравнение с [url=viewtopic.php?t=386037]http:///*spam*//forum/viewtopic.php?t=386037[/url]
Тут -- http://screenshotcomparison.com/comparison/170555/picture:1

Скриншоты

Other forum [Profile] [PM]
Display posts from previous:    
Reply to topic

The time now is: Today 03:40

All times are GMT + 3 Hours



You cannot post new topics in this forum
You cannot reply to topics in this forum
You cannot edit your posts in this forum
You cannot delete your posts in this forum
You cannot vote in polls in this forum
You cannot attach files in this forum
You cannot download files in this forum