Today is a free download without charge Download

Клинч (Сергей Пускепалис) [2015, Россия, драма, HDTV 1080i]

Reply to topic
 
Author
Message

Omen ®

Longevity: 8 years 10 months

Posts: 181086

Торрент-статистика

Post 24-Apr-2016 09:03

[Quote]

Клинч- -Страна: Россия
Жанр: драма
Год выпуска: 20152
Производство: «Марс Медиа Энтертейнмент»
Продолжительность: 01:35:35
Оригинальная аудиодорожка: русский
Cубтитры: нет-Режиссер: Сергей Пускепалис-В ролях:
Алексей Серебряков, Ася Домская, Агриппина Стеклова, Вячеслав Евлантьев, Максим Лагашкин,
Сергей Стёпин, Илья Чертов, Ирина Луковская, Анна Уколова, Ирина Ильинская-Описание:
У школьного учителя литературы Федорова был трудный день. Две смены, потом собрание, затем нотация от директрисы, а в его маленькой квартире жена затеяла ремонт. Вдобавок ко всему по дороге домой за ним увязывается незнакомая девушка, которая выхватывает из рук учителя портфель и убегает. Федоров догоняет воровку, она плачет, жалуется на сложную жизнь и вдруг начинает обвинять его в самоубийстве своей подруги и угрожать приездом жениха-бандита. Посчитав незнакомку сумасшедшей, Федоров собирается уйти, не подозревая, что это только начало опасного знакомства.-Возраст: 16+-Качество: HDTV (1080i)
Формат: TS
Видео кодек: AVC
Аудио кодек: MPEG Audio 2

Видео: AVC, 1920 х 1080 (16:9), 25,000 кадр/сек, 7 366 Кбит/сек, 0.142 bit/pixel
Аудио: MPEG Audio 2, 48000 Hz, 256 Kbps, 2 канала
-

MediaInfo

General
ID : 1 (0x1)
Complete name : D:\Раздачи\Клинч HDTV (1080i)\Клинч HDTV (1080i).ts
Format : MPEG-TS
File size : 5.36 GiB
Duration : 1h 35mn
Overall bit rate mode : Variable
Overall bit rate : 8 021 Kbps
Video
ID : 256 (0x100)
Menu ID : 1 (0x1)
Format : AVC
Format/Info : Advanced Video Codec
Format profile : [email protected]
Format settings, CABAC : Yes
Format settings, ReFrames : 3 frames
Codec ID : 27
Duration : 1h 35mn
Bit rate : 7 366 Kbps
Width : 1 920 pixels
Height : 1 080 pixels
Display aspect ratio : 16:9
Frame rate : 25.000 fps
Standard : Component
Color space : YUV
Chroma subsampling : 4:2:0
Bit depth : 8 bits
Scan type : Interlaced
Scan type, store method : Separated fields
Scan order : Top Field First
Bits/(Pixel*Frame) : 0.142
Stream size : 4.92 GiB (92%)
Color range : Limited
Color primaries : BT.709
Transfer characteristics : BT.709
Matrix coefficients : BT.709
Audio
ID : 257 (0x101)
Menu ID : 1 (0x1)
Format : MPEG Audio
Format version : Version 1
Format profile : Layer 2
Codec ID : 3
Duration : 1h 35mn
Bit rate mode : Constant
Bit rate : 256 Kbps
Channel(s) : 2 channels
Sampling rate : 48.0 KHz
Compression mode : Lossy
Delay relative to video : -120ms
Stream size : 175 MiB (3%)
Language : English

Скриншоты


-Раздаю до первых 5-ти скачавших, на раздачи не возвращаюсь...-
Other forum [Profile] [PM]
Display posts from previous:    
Reply to topic

The time now is: Today 13:36

All times are GMT + 3 Hours



You cannot post new topics in this forum
You cannot reply to topics in this forum
You cannot edit your posts in this forum
You cannot delete your posts in this forum
You cannot vote in polls in this forum
You cannot attach files in this forum
You cannot download files in this forum