Today is a free download without charge Download

Бимини / Bimini (Арнольд Буровс / Arnolds Burovs) [1981, СССР, анимация, экранизация, WEBRip] original + rus sub

Reply to topic
 
Author
Message

Omen ®

Longevity: 7 years 11 months

Posts: 181087

Торрент-статистика

Post 23-Apr-2016 12:03

[Quote]

Бимини / Bimini
Страна: СССР (Латвийская республика)
Жанр: анимация, экранизация
Продолжительность: 00:18:18
Год выпуска: 1981
Перевод: субтитры (alex.n42)
Русские субтитры: есть
Режиссёр: Арнольд Буровс / Arnolds Burovs
Композитор: Имант Калныньш / Imants Kalniņš
Описание: По мотивам поэмы Генриха Гейне.
Герой фильма - художник, путешественник и любимец публики. Достигнув старости, он узнаёт из песни служанки-индианки о существовании острова Бимини, где находится волшебный источник, исполняющий желания. Собрав на свой корабль и других нуждающихся, путешественник отправляется на поиски...
Доп. информация: При создании субтитров использован литературный перевод В. Левика
Качество: WEBRip
Формат: AVI
Видео: 1294 kbps, 528х400 (4:3), 25.000 fps, MPEG-4 Visual (XviD)
Аудио: 128 kbps, 48.0 kHz, 1 channel, MPEG Audio (MP3)
Субтитры: softsub (SRT)

Подробные технические данные

GeneralComplete name : Bimini (1981).aviFormat : AVIFormat/Info : Audio Video InterleaveFile size : 188 MiBDuration : 18mn 18sOverall bit rate : 1 432 KbpsWriting application : VirtualDubMod 1.5.10.1 (build 2366/release)Writing library : VirtualDub build 35491/release
VideoID : 0Format : MPEG-4 VisualFormat profile : Advanced [email protected] settings, BVOP : 2Format settings, QPel : NoFormat settings, GMC : No warppointsFormat settings, Matrix : Default (H.263)Codec ID : XVIDCodec ID/Hint : XviDDuration : 18mn 18sBit rate : 1 294 KbpsWidth : 528 pixelsHeight : 400 pixelsDisplay aspect ratio : 4:3Frame rate : 25.000 fpsColor space : YUVChroma subsampling : 4:2:0Bit depth : 8 bitsScan type : ProgressiveCompression mode : LossyBits/(Pixel*Frame) : 0.245Stream size : 170 MiB (90%)Writing library : XviD 64
AudioID : 1Format : MPEG AudioFormat version : Version 1Format profile : Layer 3Codec ID : 55Codec ID/Hint : MP3Duration : 18mn 18sBit rate mode : ConstantBit rate : 128 KbpsChannel(s) : 1 channelSampling rate : 48.0 KHzCompression mode : LossyStream size : 16.8 MiB (9%)Alignment : Aligned on interleavesInterleave, duration : 40 ms (1.00 video frame)Interleave, preload duration : 504 ms

Скриншоты

Пример субтитров

1
00:00:02,260 --> 00:00:07,210
БИМИНИ
2
00:04:39,600 --> 00:04:46,170
КТО МЕЧТАЕТ О НЕВОЗМОЖНОМ,
СПОСОБЕН СВЕРШИТЬ НЕВОЗМОЖНОЕ.
3
00:07:17,030 --> 00:07:22,220
Птичка колибри, лети -
4
00:07:22,290 --> 00:07:27,060
Путь держи на Бимини,
5
00:07:28,180 --> 00:07:32,440
Ты - вперёд, мы - за тобою
6
00:07:33,370 --> 00:07:39,140
В лодках, убранных флажками.
7
00:07:39,660 --> 00:07:43,900
На чудесном Бимини
8
00:07:45,200 --> 00:07:50,480
Ключ играет светлоструйный,
9
00:07:51,050 --> 00:07:55,670
Из волшебного истока
10
00:07:56,680 --> 00:08:01,910
Воды молодости льются.
11
00:08:02,770 --> 00:08:06,180
Старец, выпив чудной влаги,
12
00:08:06,530 --> 00:08:09,850
Станет юным, сбросит годы.
13
00:08:09,860 --> 00:08:14,330
Так, разбив кокон постылый,
14
00:08:16,090 --> 00:08:19,370
Вылетает мотылёк.
Other forum [Profile] [PM]
Display posts from previous:    
Reply to topic

The time now is: Today 03:21

All times are GMT + 3 Hours



You cannot post new topics in this forum
You cannot reply to topics in this forum
You cannot edit your posts in this forum
You cannot delete your posts in this forum
You cannot vote in polls in this forum
You cannot attach files in this forum
You cannot download files in this forum