Today is a free download without charge Download

Маша (Алексей Праздников) [2012, Россия, мелодрама, HDTV 1080i]

Reply to topic
 
Author
Message

Omen ®

Longevity: 8 years 10 months

Posts: 181086

Торрент-статистика

Post 22-Apr-2016 21:00

[Quote]

Маша- -Страна: Россия
Жанр: мелодрама
Год выпуска: 2012
Производство: «ПРИОР Продакшн»
Продолжительность: 01:28:52
Оригинальная аудиодорожка: русский
Cубтитры: нет-Режиссер: Алексей Праздников-В ролях:
Ольга Ломоносова, Евгений Пронин, Алексей Мышинский, Екатерина Васильева (I), Наталья Бурмистрова,
Борис Смолкин, Ольга Кирсанова-Миропольская, Татьяна Самарина, Полина Красавина, Елена Кошевая, Наталья Шапошникова-Описание:
Что такое женское счастье?.. Для Маши — сын и работа. Именно им она и посвятила свою жизнь, забыв про все остальное. Маша — старший научный сотрудник института Биологического Синтеза, кандидат химико-биологических наук и, одновременно, репетитор. Ее сын в выпускном классе и активно готовится к ЕГЭ, что приносит Маше лишь дополнительных переживаний: если сын провалит экзамен, то его заберут в армию.
Вот в такой рутинной жизни Маши внезапно появляется Алексей… Жизнь Маши наполняется давно забытыми эмоциями и сердечными переживаниями. Но сын Миша воспринимает маминого возлюбленного «в штыки». Попытка Алексея объясниться с подростком приводит к безобразной драке, а позже Миша и вовсе пускается «во все тяжкие». Маша встает перед выбором: быть счастливой с Алексеем и пойти на охлаждение отношений с сыном, или посвятить еще несколько лет воспитанию подростка, забыв про свою любовь…
Тонкое, атмосферное кино, отсылающее зрителя к «Осеннему марафону», расскажет о том, как важно не побояться вовремя прервать бег по замкнутому кругу и изменить жизненные приоритеты.-Возраст: 18+-Качество: HDTV (1080i)
Формат: TS
Видео кодек: AVC
Аудио кодек: MPEG Audio 2

Видео: AVC, 1920 х 1080 (16:9), 25,000 кадр/сек, 7 365 Кбит/сек, 0.142 bit/pixel
Аудио: MPEG Audio 2, 48000 Hz, 256 Kbps, 2 канала
-

MediaInfo

General
ID : 1 (0x1)
Complete name : D:\Раздачи\Маша HDTV (1080i)\Маша HDTV (1080i).ts
Format : MPEG-TS
File size : 4.98 GiB
Duration : 1h 28mn
Overall bit rate mode : Variable
Overall bit rate : 8 020 Kbps
Video
ID : 256 (0x100)
Menu ID : 1 (0x1)
Format : AVC
Format/Info : Advanced Video Codec
Format profile : [email protected]
Format settings, CABAC : Yes
Format settings, ReFrames : 3 frames
Codec ID : 27
Duration : 1h 28mn
Bit rate : 7 365 Kbps
Width : 1 920 pixels
Height : 1 080 pixels
Display aspect ratio : 16:9
Frame rate : 25.000 fps
Standard : Component
Color space : YUV
Chroma subsampling : 4:2:0
Bit depth : 8 bits
Scan type : Interlaced
Scan type, store method : Separated fields
Scan order : Top Field First
Bits/(Pixel*Frame) : 0.142
Stream size : 4.57 GiB (92%)
Color range : Limited
Color primaries : BT.709
Transfer characteristics : BT.709
Matrix coefficients : BT.709
Audio
ID : 257 (0x101)
Menu ID : 1 (0x1)
Format : MPEG Audio
Format version : Version 1
Format profile : Layer 2
Codec ID : 3
Duration : 1h 28mn
Bit rate mode : Constant
Bit rate : 256 Kbps
Channel(s) : 2 channels
Sampling rate : 48.0 KHz
Compression mode : Lossy
Stream size : 163 MiB (3%)
Language : English

Скриншоты


-Раздаю до первых 5-ти скачавших, на раздачи не возвращаюсь...-
Other forum [Profile] [PM]
Display posts from previous:    
Reply to topic

The time now is: Today 14:30

All times are GMT + 3 Hours



You cannot post new topics in this forum
You cannot reply to topics in this forum
You cannot edit your posts in this forum
You cannot delete your posts in this forum
You cannot vote in polls in this forum
You cannot attach files in this forum
You cannot download files in this forum