Today is a free download without charge Download

Смешарики. Легенда о золотом драконе (Денис Чернов) [2016, Россия, мультфильм, приключения, комедия, WEB-DLRip-AVC]

Reply to topic
 
Author
Message

Omen ®

Longevity: 7 years 11 months

Posts: 181087

Торрент-статистика

Post 22-Apr-2016 15:00

[Quote]

Смешарики. Легенда о золотом драконе
«Предпоследняя надежда человечества»

Страна: Россия
Жанр: мультфильм, приключения, комедия
Год выпуска: 2016
Продолжительность: 01:20:17
Перевод: Не требуется (русский)
Cубтитры: нет
Режиссер: Денис Чернов
В ролях: Михаил Черняк, Сергей Мардарь, Антон Виноградов, Владимир Постников, Светлана Письмиченко, Вадим Бочанов, Гарик Харламов, Дмитрий Нагиев, Елена Шульман, Владимир Маслаков
Описание:
Выдающийся учёный и его команда отправляются в самое сердце диких джунглей, где их ждут опасные приключения, свирепые туземцы и расхитители гробниц, до зубов вооруженные гаджетами.
Автор рипа: Stalker oK
Сэмпл
Качество видео: WEB-DLRip-AVC [BLUEBIRD / WEB-DL / 1080p]
Формат видео: MKV
Видео кодек: AVC
Аудио кодек: AAC
Видео: 1234 Кбит/сек, 812*338 (2,40:1), в 23,976 (24000/1001) кадра/сек, AVC
Аудио: русский, 64,0 Кбит/сек, 48,0 КГц / 24,0 КГц, 2 канала, AAC (HE-AAC / LC) [iTunes]
Навигация по главам: есть

MediaInfo

Общее
Уникальный идентификатор : 199617595896045489474298984070888330665 (0x962CF3565875A6BA9D224EF5E69495A9)
Полное имя : M:\1Rips\Смешарики. Легенда о золотом драконе\Smeshariki.Legenda.o.zolotom.drakone.2016.WEB-DLRip-AVC.745Mb.stalkerok.new-team.mkv
Формат : Matroska
Версия формата : Version 4 / Version 2
Размер файла : 746 Мбайт
Продолжительность : 1 ч. 20 м.
Общий поток : 1299 Кбит/сек
Название фильма : Смешарики. Легенда о золотом драконе (2016) (New-Team) (Rip by Stalker oK)
Дата кодирования : UTC 2016-04-22 09:47:27
Программа кодирования : mkvmerge v8.6.1 ('Flying') 64bit
Библиотека кодирования : libebml v1.3.3 + libmatroska v1.4.4
Видео
Идентификатор : 1
Формат : AVC
Формат/Информация : Advanced Video Codec
Профиль формата : [email protected]
Параметр CABAC формата : Да
Параметр ReFrames формата : 16 кадров
Идентификатор кодека : V_MPEG4/ISO/AVC
Продолжительность : 1 ч. 20 м.
Битрейт : 1234 Кбит/сек
Ширина : 812 пикселей
Высота : 338 пикселей
Соотношение сторон : 2,40:1
Режим частоты кадров : Постоянный
Частота кадров : 23,976 (24000/1001) кадра/сек
Цветовое пространство : YUV
Субдискретизация насыщенности : 4:2:0
Битовая глубина : 8 бит
Тип развёртки : Прогрессивная
Бит/(Пиксели*Кадры) : 0.188
Размер потока : 708 Мбайт (95%)
Заголовок : Смешарики. Легенда о золотом драконе (2016) (New-Team) (Rip by Stalker oK)
Библиотека кодирования : x264 core 148 r2665kMod a01e339
Настройки программы : cabac=1 / ref=16 / deblock=1:-3:-3 / analyse=0x3:0x133 / me=umh / subme=11 / psy=1 / fade_compensate=0.00 / psy_rd=1.00:0.02 / mixed_ref=1 / me_range=48 / chroma_me=1 / trellis=2 / 8x8dct=1 / cqm=0 / deadzone=21,11 / fast_pskip=0 / chroma_qp_offset=-3 / threads=11 / lookahead_threads=2 / sliced_threads=0 / nr=0 / decimate=0 / interlaced=0 / bluray_compat=0 / constrained_intra=0 / fgo=0 / bframes=16 / b_pyramid=2 / b_adapt=2 / b_bias=0 / direct=3 / weightb=1 / open_gop=0 / weightp=2 / keyint=240 / keyint_min=23 / scenecut=40 / intra_refresh=0 / rc_lookahead=60 / rc=2pass / mbtree=0 / bitrate=1234 / ratetol=1.0 / qcomp=0.70 / qpmin=0 / qpmax=69 / qpstep=4 / cplxblur=20.0 / qblur=0.5 / vbv_maxrate=50000 / vbv_bufsize=62500 / nal_hrd=none / filler=0 / ip_ratio=1.40 / pb_ratio=1.30 / aq=3:0.90
Default : Да
Forced : Нет
Аудио
Идентификатор : 2
Формат : AAC
Формат/Информация : Advanced Audio Codec
Профиль формата : HE-AAC / LC
Идентификатор кодека : A_AAC
Продолжительность : 1 ч. 20 м.
Битрейт : 64,0 Кбит/сек
Каналы : 2 канала
Расположение каналов : Front: L R
Частота : 48,0 КГц / 24,0 КГц
Частота кадров : 23,438 кадра/сек (1024 spf)
Метод сжатия : С потерями
Задержка видео : 31 мс.
Размер потока : 36,8 Мбайт (5%)
Язык : Russian
Default : Да
Forced : Нет
Меню
00:00:00.000 : en:1
00:02:26.000 : en:2
00:12:38.000 : en:3
00:20:06.000 : en:4
00:30:21.000 : en:5
00:41:12.000 : en:6
00:52:53.000 : en:7
01:01:34.000 : en:8
01:14:38.000 : en:9

Скриншоты

Other forum [Profile] [PM]
Display posts from previous:    
Reply to topic

The time now is: Today 08:54

All times are GMT + 3 Hours



You cannot post new topics in this forum
You cannot reply to topics in this forum
You cannot edit your posts in this forum
You cannot delete your posts in this forum
You cannot vote in polls in this forum
You cannot attach files in this forum
You cannot download files in this forum