Today is a free download without charge Download

Смешарики. Легенда о золотом драконе (Денис Чернов) [2016, Россия, Мультфильм, приключения, комедия, WEB-DLRip]

Reply to topic
 
Author
Message

Omen ®

Longevity: 7 years 11 months

Posts: 181087

Торрент-статистика

Post 21-Apr-2016 03:00

[Quote]

-Смешарики.
Легенда о золотом драконе
«Предпоследняя надежда человечества»- Год выпуска: 2016
Страна: Россия
Жанр: Мультфильм, приключения, комедия
Продолжительность: 01:20:17-Перевод: Не требуется
Русские субтитры: нет-Режиссёр: Денис Чернов-Роли озвучивали: Михаил Черняк, Сергей Мардарь, Антон Виноградов, Владимир Постников, Светлана Письмиченко, Вадим Бочанов, Гарик Харламов, Дмитрий Нагиев, Елена Шульман, Владимир Маслаков-Описание: Выдающийся учёный и его команда отправляются в самое сердце диких джунглей, где их ждут опасные приключения, свирепые туземцы и расхитители гробниц, до зубов вооруженные гаджетами.- -Качество: WEB-DLRip
Формат: AVI
Видео: XviD, 720x304 (2.35:1), 23.98fps, 1081 kbps, 0.206 Bits/(Pixel*Frame)
Аудио: AC3 48kHz 2ch 128 kbps
Субтитры: отсутствуют-

Подробные технические данные

Код:
General
Complete name               : D:\Фильмы\Смешарики. Легенда о золотом драконе\Смешарики. Легенда о золотом драконе 2016 WEB-DLRip700MB.avi
Format                      : AVI
Format/Info                 : Audio Video Interleave
File size                   : 700 MiB
Duration                    : 1h 20mn
Overall bit rate            : 1 219 Kbps
Writing application         : VirtualDubMod 1.5.10.3 | www.virtualdub-fr.org || (build 2550/release)
Writing library             : VirtualDubMod build 2550/release
Video
ID                          : 0
Format                      : MPEG-4 Visual
Format profile              : Advanced [email protected]
Format settings, BVOP       : 2
Format settings, QPel       : No
Format settings, GMC        : No warppoints
Format settings, Matrix     : Default (MPEG)
Codec ID                    : XVID
Codec ID/Hint               : XviD
Duration                    : 1h 20mn
Bit rate                    : 1 081 Kbps
Width                       : 720 pixels
Height                      : 304 pixels
Display aspect ratio        : 2.35:1
Frame rate                  : 23.976 (24000/1001) fps
Color space                 : YUV
Chroma subsampling          : 4:2:0
Bit depth                   : 8 bits
Scan type                   : Progressive
Compression mode            : Lossy
Bits/(Pixel*Frame)          : 0.206
Stream size                 : 621 MiB (89%)
Writing library             : XviD 1.2.1 (UTC 2008-12-04)
Audio
ID                          : 1
Format                      : AC-3
Format/Info                 : Audio Coding 3
Mode extension              : CM (complete main)
Format settings, Endianness : Big
Codec ID                    : 2000
Duration                    : 1h 20mn
Bit rate mode               : Constant
Bit rate                    : 128 Kbps
Channel(s)                  : 2 channels
Channel positions           : Front: L R
Sampling rate               : 48.0 KHz
Frame rate                  : 31.250 fps (1536 spf)
Compression mode            : Lossy
Stream size                 : 73.5 MiB (11%)
Alignment                   : Split accross interleaves
Interleave, duration        : 42 ms (1.00 video frame)
Interleave, preload duratio : 500 ms
[/spoiler]
-

Скриншоты

-
Other forum [Profile] [PM]
Display posts from previous:    
Reply to topic

The time now is: Today 03:31

All times are GMT + 3 Hours



You cannot post new topics in this forum
You cannot reply to topics in this forum
You cannot edit your posts in this forum
You cannot delete your posts in this forum
You cannot vote in polls in this forum
You cannot attach files in this forum
You cannot download files in this forum