Today is a free download without charge Download

СуперБобровы (Дмитрий Дьяченко) [2016, Россия, комедия, семейный, WEB-DL 720p]

Reply to topic
 
Author
Message

Omen ®

Longevity: 8 years 10 months

Posts: 181086

Торрент-статистика

Post 21-Apr-2016 00:03

[Quote]

-Супер
Бобровы
- Страна: Россия
Жанр: Комедия, семейный
Год выпуска: 2016
Продолжительность: 01:35:12-Перевод: не требуется
Cубтитры: нет
Оригинальная аудиодорожка: русский-Режиссёр: Дмитрий Дьяченко-В ролях: Павел Деревянко, Оксана Акиньшина, Роман Мадянов, Владимир Толоконников, Ирина Пегова, Даниил Вахрушев, Софья Мицкевич, Виталий Кищенко, Алексей Хардиков, Андрей Ребенков, Александр Карпиловский, Эльберд Агаев, Анжела Белянская, Павел Ворожцов, Максим Заусалин, Максим Емельянов, Юрий Горин, Александр Егерев, Дмитрий Межевич, Сергей Афанасьев, Владимир Тимофеев, Александр Обласов, Алексей Матошин, Сергей Волобуев, Валерий Панков, Анастасия Попова (II), Анжела Кольцова, Елена Нестерова, Ольга Ергина, Мария Лаврова-Описание: Вместо десерта на ужин семейство Бобровых получило... метеорит. Настоящий, большой, из космоса. Благодаря ему Бобровы вдруг приобретают немыслимые сверхспособности. Дед становится бессмертным, а отец теперь может телепортироваться. Сын начинает понимать собачий язык, а его сёстры получают суперсилу, возможность летать и быть невидимой. Единственное ограничение - способности действуют только когда вся семейка в сборе. Короче, у заурядной, среднестатистической ячейки общества появляется шанс превратиться в отряд настоящих супергероев. Вот только вместо того, чтобы спасать мир, они решают ограбить ближайший банк…-Премьера (мир) 1 апреля 2016
Премьера (РФ) 17 марта 2016, «WDSSPR»- -Качество видео: WEB-DL 720p
Формат видео: AVI
Видео: XviD, 1280x536 (2.40:1), 4035 Кбит/с, 0.245 Bits/(Pixel*Frame)
Аудио: AC3, 6 ch, 384 Кбит/с-

MediaInfo

Код:
General
Unique ID                   : 181596241550002860350927202816223823597 (0x889E29F7E6E2F11D83E024372DFB46ED)
Complete name               : D:\Фильмы\SuperBobrovy.2016.WEB-DL.720p.mkv
Format                      : Matroska
Format version              : Version 4 / Version 2
File size                   : 2.94 GiB
Duration                    : 1h 35mn
Overall bit rate            : 4 420 Kbps
Encoded date                : UTC 2016-04-20 18:07:08
Writing application         : mkvmerge v8.3.0 ('Over the Horizon') 64bit
Writing library             : libebml v1.3.1 + libmatroska v1.4.2
Video
ID                          : 1
Format                      : AVC
Format/Info                 : Advanced Video Codec
Format profile              : [email protected]
Format settings, CABAC      : No
Format settings, ReFrames   : 2 frames
Codec ID                    : V_MPEG4/ISO/AVC
Duration                    : 1h 35mn
Bit rate                    : 4 035 Kbps
Width                       : 1 280 pixels
Height                      : 536 pixels
Display aspect ratio        : 2.40:1
Frame rate mode             : Constant
Frame rate                  : 24.000 fps
Color space                 : YUV
Chroma subsampling          : 4:2:0
Bit depth                   : 8 bits
Scan type                   : Progressive
Bits/(Pixel*Frame)          : 0.245
Stream size                 : 2.68 GiB (91%)
Language                    : English
Default                     : Yes
Forced                      : No
Color range                 : Limited
Color primaries             : BT.709
Transfer characteristics    : BT.709
Matrix coefficients         : BT.709
Audio
ID                          : 2
Format                      : AC-3
Format/Info                 : Audio Coding 3
Mode extension              : CM (complete main)
Format settings, Endianness : Big
Codec ID                    : A_AC3
Duration                    : 1h 35mn
Bit rate mode               : Constant
Bit rate                    : 384 Kbps
Channel(s)                  : 6 channels
Channel positions           : Front: L C R, Side: L R, LFE
Sampling rate               : 48.0 KHz
Frame rate                  : 31.250 fps (1536 spf)
Compression mode            : Lossy
Stream size                 : 261 MiB (9%)
Language                    : Russian
Default                     : Yes
Forced                      : No
Menu
00:00:00.000                : en:Глава 1
00:05:48.000                : en:Глава 2
00:11:31.541                : en:Глава 3
00:17:33.541                : en:Глава 4
00:23:10.749                : en:Глава 5
00:28:51.874                : en:Глава 6
00:34:25.707                : en:Глава 7
00:41:08.665                : en:Глава 8
00:47:43.540                : en:Глава 9
00:53:00.456                : en:Глава 10
00:58:34.622                : en:Глава 11
01:03:53.705                : en:Глава 12
01:09:34.580                : en:Глава 13
01:16:31.871                : en:Глава 14
01:22:49.287                : en:Глава 15
01:29:28.162                : en:Глава 16
[/spoiler]
-

Скриншот c названием фильма

Скриншоты

-
Other forum [Profile] [PM]
Display posts from previous:    
Reply to topic

The time now is: Today 15:08

All times are GMT + 3 Hours



You cannot post new topics in this forum
You cannot reply to topics in this forum
You cannot edit your posts in this forum
You cannot delete your posts in this forum
You cannot vote in polls in this forum
You cannot attach files in this forum
You cannot download files in this forum