Today is a free download without charge Download

Крякнутые каникулы (Виктор Лакисов) [2015, Россия, мультфильм, комедия, приключения, семейный, WEB-DLRip]

Reply to topic
 
Author
Message

Omen ®

Longevity: 7 years 11 months

Posts: 181087

Торрент-статистика

Post 19-Apr-2016 18:03

[Quote]

Крякнутые каникулы
Страна: Россия
Жанр: мультфильм, комедия, приключения, семейный
Продолжительность: 01:21:43
Год выпуска: 2015
Перевод: Не требуется
Русские субтитры: нет--Режиссёр: Виктор Лакисов--Роли озвучивали: Никита Пресняков, Владимир Пресняков мл., Эвелина Блёданс, Полина Максимова, Александр Головин, Всеволод Кузнецов, Борис Токарев, Станислав Стрелков, Елена Шульман, Михаил Лукашов--Описание: Перелётные кряквы из России, решившие провести свой отдых на Гавайях, сбиваются с пути и приземляются на китайский остров, на котором живут утки-мандаринки. Между двумя стаями возникает много смешных и курьёзных ситуаций. Пока отцы дерутся и спорят, Ник, сын императора мандаринок и Ариша, дочь командира русских крякв, знакомятся и становятся друзьями. Дети должны объединить мандаринок и крякв и победить Ведьму Марго, которая хочет погубить солнце.--Доп. информация: | КиноПоиск | Сэмпл |--Качество: WEB-DLRip
Формат: AVI
Видео: XviD 73, 656x368 (16:9), 24.000 fps, 1140 Kbps
Аудио: MP3 MPEG Audio, 2/0 (L,R) ch, 48 kHz, 128 kbps
Субтитры: отсутствуют

Подробные технические данные

General
Complete name : Крякнутые каникулы.2015.avi
Format : AVI
Format/Info : Audio Video Interleave
File size : 745 MiB
Duration : 1h 21mn
Overall bit rate : 1 274 Kbps
Video
ID : 0
Format : MPEG-4 Visual
Format profile : Advanced [email protected]
Format settings, BVOP : 1
Format settings, QPel : No
Format settings, GMC : No warppoints
Format settings, Matrix : Custom
Codec ID : XVID
Codec ID/Hint : XviD
Duration : 1h 21mn
Bit rate : 1 140 Kbps
Width : 656 pixels
Height : 368 pixels
Display aspect ratio : 16:9
Frame rate : 24.000 fps
Color space : YUV
Chroma subsampling : 4:2:0
Bit depth : 8 bits
Scan type : Progressive
Compression mode : Lossy
Bits/(Pixel*Frame) : 0.197
Stream size : 666 MiB (89%)
Writing library : XviD 73
Audio
ID : 1
Format : MPEG Audio
Format version : Version 1
Format profile : Layer 3
Mode : Joint stereo
Mode extension : MS Stereo
Codec ID : 55
Codec ID/Hint : MP3
Duration : 1h 21mn
Bit rate mode : Constant
Bit rate : 128 Kbps
Channel(s) : 2 channels
Sampling rate : 48.0 KHz
Compression mode : Lossy
Stream size : 74.8 MiB (10%)
Alignment : Aligned on interleaves
Interleave, duration : 167 ms (4.00 video frames)
Interleave, preload duratio : 216 ms
Title : Russian
Writing library : LAME3.99r
Encoding settings : -m j -V 4 -q 2 -lowpass 17 -b 128

Скриншоты

Other forum [Profile] [PM]
Display posts from previous:    
Reply to topic

The time now is: Today 20:38

All times are GMT + 3 Hours



You cannot post new topics in this forum
You cannot reply to topics in this forum
You cannot edit your posts in this forum
You cannot delete your posts in this forum
You cannot vote in polls in this forum
You cannot attach files in this forum
You cannot download files in this forum