Today is a free download without charge Download

Все непонятливые (Натан Лернер) [1987, мультфильм, короткометражка, DVB]

Reply to topic
 
Author
Message

Omen ®

Longevity: 7 years 11 months

Posts: 181087

Торрент-статистика

Post 19-Apr-2016 18:03

[Quote]

Все непонятливые Жанр: Мультфильм, короткометражка.
Год выпуска: 1974
Продолжительность: 00:07:11
Режиссёр: Натан Лернер-Описание: Мультик о вежливом червячке, который ну никак не хотел идти на обед горластой курице. Фильм снят по мотивам произведения Людмилы Петрушевской.
- -Релиз: -Трансляция спутникового канала: "Точка тв"
Качество видео: DVB
Формат видео: MPEG-TS
Видео: MPEG2 Video, 704x576, 25 fps, 3 568 kbps
Аудио: MPEG Audio, 2 сh, 48 kHz, 192 kbps

MediaInfo

Код:
General
ID                          : 1 (0x1)
Complete name               : D:\Все непонятливые.ts
Format                      : MPEG-TS
File size                   : 204 MiB
Duration                    : 7mn 11s
Overall bit rate mode       : Variable
Overall bit rate            : 3 957 Kbps
Video
ID                          : 2890 (0xB4A)
Menu ID                     : 1352 (0x548)
Format                      : MPEG Video
Format version              : Version 2
Format profile              : [email protected]
Format settings, BVOP       : Yes
Format settings, Matrix     : Custom
Format settings, GOP        : Variable
Format settings, picture st : Frame
Codec ID                    : 2
Duration                    : 7mn 11s
Bit rate mode               : Variable
Bit rate                    : 3 568 Kbps
Maximum bit rate            : 15.0 Mbps
Width                       : 704 pixels
Height                      : 576 pixels
Display aspect ratio        : 4:3
Frame rate                  : 25.000 fps
Standard                    : PAL
Color space                 : YUV
Chroma subsampling          : 4:2:0
Bit depth                   : 8 bits
Scan type                   : Interlaced
Scan order                  : Top Field First
Compression mode            : Lossy
Bits/(Pixel*Frame)          : 0.352
Time code of first frame    : 00:00:00:00
Time code source            : Group of pictures header
GOP, Open/Closed            : Open
GOP, Open/Closed of first f : Closed
Stream size                 : 184 MiB (90%)
Audio
ID                          : 2891 (0xB4B)
Menu ID                     : 1352 (0x548)
Format                      : MPEG Audio
Format version              : Version 1
Format profile              : Layer 2
Codec ID                    : 3
Duration                    : 7mn 11s
Bit rate mode               : Constant
Bit rate                    : 192 Kbps
Channel(s)                  : 2 channels
Sampling rate               : 48.0 KHz
Compression mode            : Lossy
Delay relative to video     : 19ms
Stream size                 : 9.88 MiB (5%)
Language                    : Russian

Скриншоты


Other forum [Profile] [PM]
Display posts from previous:    
Reply to topic

The time now is: Today 20:12

All times are GMT + 3 Hours



You cannot post new topics in this forum
You cannot reply to topics in this forum
You cannot edit your posts in this forum
You cannot delete your posts in this forum
You cannot vote in polls in this forum
You cannot attach files in this forum
You cannot download files in this forum