Today is a free download without charge Download

8 лучших свиданий (Марюс Вайсберг) [2016,Россия, комедия, мелодрама, WEB-DL 720p]

Reply to topic
 
Author
Message

Omen ®

Longevity: 8 years 10 months

Posts: 181086

Торрент-статистика

Post 19-Apr-2016 09:00

[Quote]

-8 лучших
свиданий
- Страна: Россия | Kvartal 95 Studio
Жанр: комедия, мелодрама
Год выпуска: 2016
Продолжительность: 01:32:55-Перевод: Не требуется
Cубтитры: нет
Оригинальная аудиодорожка: русский-Режиссёр: Марюс Вайсберг-В ролях: Владимир Зеленский, Вера Брежнева, Владимир Епифанцев, Евгений Кошевой, Сергей Казанин, Нино Кантария, Виктор Щур, Мария Ивакова-Описание: Одним солнечным днем преуспевающий владелец ветклиники Никита узнает, что неизлечимо болен. Он не подозревает, что это врачебная ошибка, и всерьез задумывается: кто же позаботится о его прекрасных жене, детях и бизнесе?.. И тут в его голову приходит мысль, что, как это ни прискорбно, кажется, пора подыскивать себе замену.- -Качество видео: WEB-DL 720p
Формат видео: MKV
Видео: AVC, 960x720, 25fps, 4 046 kbps, 0.234 Bits/(Pixel*Frame)
Аудио: AC3, 48kHz 6ch 384kbps-

MediaInfo

General
Unique ID : 197045856277006474052664415624536773367 (0x943DA6C8D7FA11878FE6D62A864BD2F7)
Complete name : D:\Фильмы\8 лучших свиданий 2016.O.WEB-DL.720p.mkv
Format : Matroska
Format version : Version 4 / Version 2
File size : 2.88 GiB
Duration : 1h 32mn
Overall bit rate : 4 432 Kbps
Encoded date : UTC 2016-04-18 21:43:34
Writing application : mkvmerge v8.3.0 ('Over the Horizon') 64bit
Writing library : libebml v1.3.1 + libmatroska v1.4.2
Video
ID : 1
Format : AVC
Format/Info : Advanced Video Codec
Format profile : [email protected]
Format settings, CABAC : No
Format settings, ReFrames : 2 frames
Codec ID : V_MPEG4/ISO/AVC
Duration : 1h 32mn
Bit rate : 4 046 Kbps
Width : 960 pixels
Height : 720 pixels
Display aspect ratio : 16:9
Frame rate mode : Constant
Frame rate : 25.000 fps
Color space : YUV
Chroma subsampling : 4:2:0
Bit depth : 8 bits
Scan type : Progressive
Bits/(Pixel*Frame) : 0.234
Stream size : 2.63 GiB (91%)
Language : English
Default : Yes
Forced : No
Color range : Limited
Color primaries : BT.709
Transfer characteristics : BT.709
Matrix coefficients : BT.709
Audio
ID : 2
Format : AC-3
Format/Info : Audio Coding 3
Mode extension : CM (complete main)
Format settings, Endianness : Big
Codec ID : A_AC3
Duration : 1h 32mn
Bit rate mode : Constant
Bit rate : 384 Kbps
Channel(s) : 6 channels
Channel positions : Front: L C R, Side: L R, LFE
Sampling rate : 48.0 KHz
Frame rate : 31.250 fps (1536 spf)
Compression mode : Lossy
Stream size : 255 MiB (9%)
Language : Russian
Default : Yes
Forced : No
Menu
00:00:00.000 : en:Глава 1
00:05:48.440 : en:Глава 2
00:10:55.760 : en:Глава 3
00:16:36.320 : en:Глава 4
00:22:32.280 : en:Глава 5
00:27:57.320 : en:Глава 6
00:33:55.560 : en:Глава 7
00:41:36.840 : en:Глава 8
00:46:47.640 : en:Глава 9
00:52:32.440 : en:Глава 10
00:57:57.320 : en:Глава 11
01:03:22.520 : en:Глава 12
01:09:03.200 : en:Глава 13
01:14:09.680 : en:Глава 14
01:19:29.560 : en:Глава 15
01:25:16.080 : en:Глава 16
-

Скриншоты

-
Other forum [Profile] [PM]
Display posts from previous:    
Reply to topic

The time now is: Today 03:05

All times are GMT + 3 Hours



You cannot post new topics in this forum
You cannot reply to topics in this forum
You cannot edit your posts in this forum
You cannot delete your posts in this forum
You cannot vote in polls in this forum
You cannot attach files in this forum
You cannot download files in this forum