Today is a free download without charge Download

Находчивый крестьянин / Հնարամիտ Գյուղացին (Роберт Саакянц) [1984, СССР, рисованный мультфильм, притча, DVDRemux] Dub + Original Arm

Reply to topic
 
Author
Message

Omen ®

Longevity: 7 years 11 months

Posts: 181087

Торрент-статистика

Post 19-Apr-2016 00:00

[Quote]

Находчивый крестьянин / Հնարամիտ Գյուղացին
Страна: СССР
Жанр: рисованный мультфильм, притча
Продолжительность: 00:07:13
Год выпуска: 1984
Перевод: Профессиональный (дублированный)
Русские субтитры: нет
Режиссёр: Роберт Саакянц
Описание: Экранизация народной сказки про царя утратившего вкус к еде. Рассердившись, он издал указ, по которому следует рубить головы всем, кто такого вкуса не утратил. Но нашёлся крестьянин, который и свою голову спас и царя вылечил.
Доп. информация: Исходный русский звук из [url=viewtopic.php?t=4276205]раздачи[/url] deodead.
За исходный DVD спасибо ItarTass.
Синхронизация и монтаж звука - xfiles.
Качество: DVDRemux
Формат: MKV
Видео: 352x576 (4:3) @ 768x576, 25 fps, MPEG-2, ~2935 kbps
Аудио 1: Русский, 48.0 KHz, AC3, 1 ch, 128 kbps
Аудио 2: Армянский, 48.0 KHz, MPEG Audio, 2 ch, 224 kbps
Субтитры: отсутствуют

Подробные технические данные

GeneralUnique ID : 226848032853179840685481870965256026941 (0xAAA95788B4E6A59CB1ED52B0FE3CFB3D)Complete name : Находчивый крестьянин 1984 DVDRemux.mkvFormat : MatroskaFormat version : Version 4 / Version 2File size : 173 MiBDuration : 7mn 13sOverall bit rate mode : VariableOverall bit rate : 3 354 KbpsEncoded date : UTC 2016-04-18 19:12:48Writing application : mkvmerge v8.3.0 ('Over the Horizon') 64bitWriting library : libebml v1.3.1 + libmatroska v1.4.2
VideoID : 1Format : MPEG VideoFormat version : Version 2Format profile : [email protected] settings, BVOP : YesFormat settings, Matrix : DefaultFormat settings, GOP : M=3, N=12Codec ID : V_MPEG2Codec ID/Info : MPEG 1 or 2 VideoDuration : 7mn 13sBit rate mode : VariableBit rate : 2 935 KbpsMaximum bit rate : 9 610 KbpsWidth : 352 pixelsHeight : 576 pixelsDisplay aspect ratio : 4:3Original display aspect ratio : 0.869Frame rate mode : ConstantFrame rate : 25.000 fpsStandard : PALColor space : YUVChroma subsampling : 4:2:0Bit depth : 8 bitsScan type : ProgressiveScan order : Bottom Field FirstCompression mode : LossyBits/(Pixel*Frame) : 0.579Time code of first frame : 00:00:00:00Time code source : Group of pictures headerGOP, Open/Closed : OpenGOP, Open/Closed of first frame : ClosedStream size : 152 MiB (88%)Language : ArmenianDefault : YesForced : NoColor primaries : BT.601 PALTransfer characteristics : BT.470 System B, BT.470 System GMatrix coefficients : BT.601
Audio #1ID : 2Format : AC-3Format/Info : Audio Coding 3Mode extension : CM (complete main)Format settings, Endianness : BigCodec ID : A_AC3Duration : 7mn 13sBit rate mode : ConstantBit rate : 128 KbpsChannel(s) : 1 channelChannel positions : Front: CSampling rate : 48.0 KHzFrame rate : 31.250 fps (1536 spf)Compression mode : LossyStream size : 6.61 MiB (4%)Language : RussianDefault : YesForced : No
Audio #2ID : 3Format : MPEG AudioFormat version : Version 1Format profile : Layer 2Codec ID : A_MPEG/L2Codec ID/Hint : MP2Duration : 7mn 13sBit rate mode : ConstantBit rate : 224 KbpsChannel(s) : 2 channelsSampling rate : 48.0 KHzCompression mode : LossyStream size : 11.6 MiB (7%)Language : ArmenianDefault : NoForced : No

Скриншоты

Other forum [Profile] [PM]
Display posts from previous:    
Reply to topic

The time now is: Today 20:07

All times are GMT + 3 Hours



You cannot post new topics in this forum
You cannot reply to topics in this forum
You cannot edit your posts in this forum
You cannot delete your posts in this forum
You cannot vote in polls in this forum
You cannot attach files in this forum
You cannot download files in this forum