Today is a free download without charge Download

Находчивый крестьянин / Հնարամիտ Գյուղացին (Роберт Саакянц) [1984, СССР, мультфильм, WEBRip] Dub

Reply to topic
 
Author
Message

Omen ®

Longevity: 7 years 11 months

Posts: 181087

Торрент-статистика

Post 16-Apr-2016 15:00

[Quote]

Находчивый крестьянин / Հնարամիտ Գյուղացին
Страна: СССР (Армянская республика)
Жанр: мультфильм
Продолжительность: 00:06:51
Год выпуска: 1984
Перевод: Профессиональный (дублированный)
Русские субтитры: нет
Режиссёр: Роберт Саакянц
Описание: Экранизация народной сказки про царя утратившего вкус к еде. Рассердившись, он издал указ, по которому следует рубить головы всем, кто такого вкуса не утратил. Но нашёлся крестьянин, который и свою голову спас и царя вылечил.
Доп. информация: 2-я премия по разделу мультфильмов - ΧVIIΙ Всесоюзный кинофестиваль в Минске (1985)
Качество: WEBRip
Формат: AVI
Видео: 2188 kbps, 704х512 (4:3), 25.000 fps, MPEG-4 Visual (XviD)
Аудио 1: (рус) 128 kbps, 44.1 kHz, 2 channels, MPEG Audio (MP3)
Аудио 2: (арм) 192 kbps, 44.1 kHz, 2 channels, MPEG Audio (MP3)
Субтитры: отсутствуют

Подробные технические данные

GeneralComplete name : Находчивый крестьянин (1984).aviFormat : AVIFormat/Info : Audio Video InterleaveFile size : 124 MiBDuration : 6mn 51sOverall bit rate : 2 522 KbpsWriting application : VirtualDubMod 1.5.10.2 (build 2540/release)Writing library : VirtualDubMod build 2540/release
VideoID : 0Format : MPEG-4 VisualFormat profile : Advanced [email protected] settings, BVOP : 2Format settings, QPel : NoFormat settings, GMC : No warppointsFormat settings, Matrix : Default (H.263)Codec ID : XVIDCodec ID/Hint : XviDDuration : 6mn 51sBit rate : 2 188 KbpsWidth : 704 pixelsHeight : 512 pixelsDisplay aspect ratio : 1.375Frame rate : 25.000 fpsColor space : YUVChroma subsampling : 4:2:0Bit depth : 8 bitsScan type : ProgressiveCompression mode : LossyBits/(Pixel*Frame) : 0.243Stream size : 107 MiB (87%)Writing library : XviD 64
Audio #1ID : 1Format : MPEG AudioFormat version : Version 1Format profile : Layer 3Codec ID : 55Codec ID/Hint : MP3Duration : 6mn 51sBit rate mode : ConstantBit rate : 128 KbpsChannel(s) : 2 channelsSampling rate : 44.1 KHzCompression mode : LossyStream size : 6.27 MiB (5%)Alignment : Split accross interleavesInterleave, duration : 40 ms (1.00 video frame)Interleave, preload duration : 500 ms
Audio #2ID : 2Format : MPEG AudioFormat version : Version 1Format profile : Layer 3Codec ID : 55Codec ID/Hint : MP3Duration : 6mn 51sBit rate mode : ConstantBit rate : 192 KbpsChannel(s) : 2 channelsSampling rate : 44.1 KHzCompression mode : LossyStream size : 9.41 MiB (8%)Alignment : Split accross interleavesInterleave, duration : 40 ms (1.00 video frame)Interleave, preload duration : 500 ms

Скриншоты

Other forum [Profile] [PM]
Display posts from previous:    
Reply to topic

The time now is: Today 09:44

All times are GMT + 3 Hours



You cannot post new topics in this forum
You cannot reply to topics in this forum
You cannot edit your posts in this forum
You cannot delete your posts in this forum
You cannot vote in polls in this forum
You cannot attach files in this forum
You cannot download files in this forum