Today is a free download without charge Download

Десять негритят (Станислав Говорухин) [1987, СССР, триллер, HDTV 1080i]

Reply to topic
 
Author
Message

Omen ®

Longevity: 8 years 10 months

Posts: 181086

Торрент-статистика

Post 14-Apr-2016 15:00

[Quote]

Десять негритят (2 серии)
12.04.16 торрент обновлен, запись трансляции ТК "Доверие" заменена записью трансляции ТК "Первый канал HD", размер кадра 1920 на 1080 против 720 на 576, битрейт 5430 против 3186.
Жанр: триллер
Год выпуска: 1987
Продолжительность: 01:01:19 + 01:06:55
Режиссёр: Станислав Говорухин
В ролях: Татьяна Друбич, Александр Кайдановский, Людмила Максакова, Владимир Зельдин, Михаил Глузский, Александр Абдулов, Алексей Жарков, Анатолий Ромашин, Алексей Золотницкий, Ирина Терещенко, Фёдор Одиноков
Описание: Здесь каждый из героев - и жертва, и преступник, и сыщик. Они собрались на скалистом английском острове в роскошном особняке. Но между собой не знакомы. А хозяина - Алена Оуэна - прежде не видели. Таинственный голос, услышанный за обедом, обвиняет присутствующих в содеянных преступлениях, оставшихся без наказания.
Доп. информация: Запись потока *.ts со спутника Экспресс-АМУ1, 36° в.д., ремукс в *.mkv программой VideoReDo..
Качество видео: HDTV
Формат видео: MKV
Видео: Advanced Video Codec, 1920x1080 (16:9), 25,000 кадров/сек, 5430 Кбит/сек
Аудио: AC-3, 48,0 КГц, 384 Кбит/сек, 6 каналов

MediaInfo

Общее
Уникальный идентификатор : 88958689588858761057041841308476162803 (0x42ECD206576AD5EAE869F65A918CC2F3)
Полное имя : D:\MPG\ДЕСЯТЬ НЕГРИТЯТ\ДЕСЯТЬ НЕГРИТЯТ 1 (Первый канал HD).mkv
Формат : Matroska
Версия формата : Version 2
Размер файла : 2,54 Гбайт
Продолжительность : 1 ч. 1 м.
Общий поток : 5932 Кбит/сек
Программа кодирования : Lavf52.64.2
Библиотека кодирования : Lavf52.64.2
Видео
Идентификатор : 1
Формат : AVC
Формат/Информация : Advanced Video Codec
Профиль формата : [email protected]
Параметр CABAC формата : Да
Параметр ReFrames формата : 4 кадра
Идентификатор кодека : V_MPEG4/ISO/AVC
Продолжительность : 1 ч. 1 м.
Битрейт : 5430 Кбит/сек
Ширина : 1920 пикселей
Высота : 1080 пикселей
Соотношение сторон : 16:9
Режим частоты кадров : Постоянный
Частота кадров : 25,000 кадров/сек
Стандарт вещания : Component
Цветовое пространство : YUV
Субдискретизация насыщенности : 4:2:0
Битовая глубина : 8 бит
Тип развёртки : Чересстрочная
Порядок развёртки : Верхнее поле первое
Бит/(Пиксели*Кадры) : 0.105
Размер потока : 2,33 Гбайт (92%)
Default : Да
Forced : Нет
Основные цвета : BT.709
Характеристики трансфера : BT.709
Коэффициенты матрицы : BT.709
Аудио
Идентификатор : 2
Формат : AC-3
Формат/Информация : Audio Coding 3
Расширение режима : CM (complete main)
Параметр Endianness формата : Big
Идентификатор кодека : A_AC3
Продолжительность : 1 ч. 1 м.
Вид битрейта : Постоянный
Битрейт : 384 Кбит/сек
Каналы : 6 каналов
Расположение каналов : Front: L C R, Side: L R, LFE
Частота : 48,0 КГц
Битовая глубина : 16 бит
Метод сжатия : С потерями
Размер потока : 168 Мбайт (6%)
Язык : Russian
Default : Нет
Forced : Нет
Общее
Уникальный идентификатор : 251455547472757648724277745515426120664 (0xBD2C93ACD5D49A198375DAF9A1BE83D8)
Полное имя : D:\MPG\ДЕСЯТЬ НЕГРИТЯТ\ДЕСЯТЬ НЕГРИТЯТ 2 (Первый канал HD).mkv
Формат : Matroska
Версия формата : Version 2
Размер файла : 2,77 Гбайт
Продолжительность : 1 ч. 6 м.
Общий поток : 5915 Кбит/сек
Программа кодирования : Lavf52.64.2
Библиотека кодирования : Lavf52.64.2
Видео
Идентификатор : 1
Формат : AVC
Формат/Информация : Advanced Video Codec
Профиль формата : [email protected]
Параметр CABAC формата : Да
Параметр ReFrames формата : 4 кадра
Идентификатор кодека : V_MPEG4/ISO/AVC
Продолжительность : 1 ч. 6 м.
Битрейт : 5413 Кбит/сек
Ширина : 1920 пикселей
Высота : 1080 пикселей
Соотношение сторон : 16:9
Режим частоты кадров : Постоянный
Частота кадров : 25,000 кадров/сек
Стандарт вещания : Component
Цветовое пространство : YUV
Субдискретизация насыщенности : 4:2:0
Битовая глубина : 8 бит
Тип развёртки : Чересстрочная
Порядок развёртки : Верхнее поле первое
Бит/(Пиксели*Кадры) : 0.104
Размер потока : 2,53 Гбайт (92%)
Default : Да
Forced : Нет
Основные цвета : BT.709
Характеристики трансфера : BT.709
Коэффициенты матрицы : BT.709
Аудио
Идентификатор : 2
Формат : AC-3
Формат/Информация : Audio Coding 3
Расширение режима : CM (complete main)
Параметр Endianness формата : Big
Идентификатор кодека : A_AC3
Продолжительность : 1 ч. 6 м.
Вид битрейта : Постоянный
Битрейт : 384 Кбит/сек
Каналы : 6 каналов
Расположение каналов : Front: L C R, Side: L R, LFE
Частота : 48,0 КГц
Битовая глубина : 16 бит
Метод сжатия : С потерями
Размер потока : 184 Мбайт (6%)
Язык : Russian
Default : Нет
Forced : Нет
Other forum [Profile] [PM]
Display posts from previous:    
Reply to topic

The time now is: Today 22:31

All times are GMT + 3 Hours



You cannot post new topics in this forum
You cannot reply to topics in this forum
You cannot edit your posts in this forum
You cannot delete your posts in this forum
You cannot vote in polls in this forum
You cannot attach files in this forum
You cannot download files in this forum