Today is a free download without charge Download

Деньги (Сергей Грознов) [2013, Россия, комедия, детектив, HDTV (1080i)]

Reply to topic
 
Author
Message

Omen ®

Longevity: 8 years 10 months

Posts: 181086

Торрент-статистика

Post 14-Apr-2016 00:34

[Quote]

Деньги- -Страна: Россия
Жанр: комедия, детектив
Год выпуска: 2013
Производство: «киностудия "Рост"»
Продолжительность: 01:13:26
Оригинальная аудиодорожка: русский
Cубтитры: нет-Режиссер: Сергей Грознов-В ролях:
Венчислав Хотяновский, Екатерина Гусева, Владимир Меньшов, Николай Расторгуев, Кирилл Гребенщиков, Даниил Воробьёв, Вадим Рябинин-Описание:
У криминального авторитета крадут большую сумму.
Для поисков он нанимает частного детектива, параллельно с которым за украденными миллионами по Москве гоняются сами воры,
обманутые и ограбленные предприимчивой девушкой.-Возраст: 16+-Качество: HDTV (1080i)
Формат: TS
Видео кодек: AVC
Аудио кодек: AC3

Видео: AVC, 1920 х 1080 (16:9), 25,000 кадр/сек, 5 925 Кбит/сек, 0.114 bit/pixel
Аудио: AC3, 48000 Hz, 256 Kbps, 2 канала
-

MediaInfo

General
ID : 1 (0x1)
Complete name : D:\Раздачи\Деньги HDTV (1080i)\Деньги HDTV (1080i).ts
Format : MPEG-TS
File size : 3.34 GiB
Duration : 1h 13mn
Overall bit rate mode : Variable
Overall bit rate : 6 505 Kbps
Video
ID : 4113 (0x1011)
Menu ID : 1 (0x1)
Format : AVC
Format/Info : Advanced Video Codec
Format profile : [email protected]
Format settings, CABAC : Yes
Format settings, ReFrames : 3 frames
Format settings, GOP : M=4, N=32
Codec ID : 27
Duration : 1h 13mn
Bit rate mode : Variable
Bit rate : 5 925 Kbps
Maximum bit rate : 40.0 Mbps
Width : 1 920 pixels
Height : 1 080 pixels
Display aspect ratio : 16:9
Frame rate : 25.000 fps
Standard : Component
Color space : YUV
Chroma subsampling : 4:2:0
Bit depth : 8 bits
Scan type : Interlaced
Scan type, store method : Separated fields
Scan order : Top Field First
Bits/(Pixel*Frame) : 0.114
Stream size : 3.04 GiB (91%)
Color range : Limited
Color primaries : BT.709
Transfer characteristics : BT.709
Matrix coefficients : BT.709
Audio
ID : 4352 (0x1100)
Menu ID : 1 (0x1)
Format : AC-3
Format/Info : Audio Coding 3
Mode extension : CM (complete main)
Format settings, Endianness : Big
Codec ID : 129
Duration : 1h 13mn
Bit rate mode : Constant
Bit rate : 256 Kbps
Channel(s) : 2 channels
Channel positions : Front: L R
Sampling rate : 48.0 KHz
Frame rate : 31.250 fps (1536 spf)
Compression mode : Lossy
Delay relative to video : -40ms
Stream size : 134 MiB (4%)
Language : Russian

Скриншоты


-Раздаю до первых 5-ти скачавших, на раздачи не возвращаюсь...-
Other forum [Profile] [PM]
Display posts from previous:    
Reply to topic

The time now is: Today 13:55

All times are GMT + 3 Hours



You cannot post new topics in this forum
You cannot reply to topics in this forum
You cannot edit your posts in this forum
You cannot delete your posts in this forum
You cannot vote in polls in this forum
You cannot attach files in this forum
You cannot download files in this forum