Today is a free download without charge Download

Футбол. Чемпионат Италии 2015-2016. 32 тур. Рома - Болонья. (11.04.2016) HDTVRip [H.264/720p-LQ]

Reply to topic
 
Author
Message

KottoSOFT ®

Longevity: 5 years 10 months

Posts: 37

Торрент-статистика

Post 12-Apr-2016 09:27

[Quote]

Футбол. Чемпионат Италии 2015-2016. 32 тур. Рома - Болонья. (11.04.2016) - Телекомпания: Футбол 3 HD
Жанр: Спорт
Комментатор: Георгий Черданцев
Описание:
11 апреля 2016, понедельник. 21:45 МСК
32-й тур
Стадион: Олимпико (Рим, Италия) , вместимость: 72698
Главный судья: Давиде Масса (Империя, Италия)
Ассистент: Риккардо Ди Фьоре (Италия)
Ассистент: Андреа Криспо (Италия)
Резервный: Джузеппе Де Пинто (Италия)
Продолжительность: 01:44:50
Качество видео: HDTVRip
Формат видео: MKV
Автор рипа: CSKAfan
Видео: AVC/H.264, 1280x720, ~4100 Kbps, 50 fps
Аудио: AC3, 2 ch, 128 Kbps

Mediainfo:

Код:
Общее
Уникальный идентификатор                 : 24314170176178517039548687619373882622 (0x124ABD24B7D1E70D302E52E0A0CB5CFE)
Полное имя                               : G:\СПОРТ\ФУТБОЛ\ИТАЛИЯ\Футбол. Чемпионат Италии 2015-2016. 32 тур. Рома – Болонья HDTVRip 720p.mkv
Формат                                   : Matroska
Версия формата                           : Version 4 / Version 2
Размер файла                             : 3,10 Гбайт
Продолжительность                        : 1 ч. 44 м.
Общий поток                              : 4230 Кбит/сек
Программа кодирования                    : Lavf57.20.100
Библиотека кодирования                   : Lavf57.20.100 / Lavf57.20.100
Видео
Идентификатор                            : 1
Формат                                   : AVC
Формат/Информация                        : Advanced Video Codec
Профиль формата                          : [url=mailto:[email protected]][email protected][/url]
Параметр CABAC формата                   : Да
Параметр ReFrames формата                : 4 кадра
Идентификатор кодека                     : V_MPEG4/ISO/AVC
Продолжительность                        : 1 ч. 44 м.
Битрейт                                  : 4100 Кбит/сек
Ширина                                   : 1280 пикселей
Высота                                   : 720 пикселей
Соотношение сторон                       : 16:9
Режим частоты кадров                     : Постоянный
Частота кадров                           : 50,000 кадров/сек
Цветовое пространство                    : YUV
Субдискретизация насыщенности            : 4:2:0
Битовая глубина                          : 8 бит
Тип развёртки                            : Прогрессивная
Бит/(Пиксели*Кадры)                      : 0.089
Размер потока                            : 2,94 Гбайт (95%)
Библиотека кодирования                   : x264 core 148 r2638 7599210
Настройки программы                      : cabac=1 / ref=3 / deblock=1:0:0 / analyse=0x3:0x113 / me=hex / subme=7 / psy=1 / psy_rd=1.00:0.00 / mixed_ref=1 / me_range=16 / chroma_me=1 / trellis=1 / 8x8dct=1 / cqm=0 / deadzone=21,11 / fast_pskip=1 / chroma_qp_offset=-2 / threads=12 / lookahead_threads=2 / sliced_threads=0 / nr=0 / decimate=1 / interlaced=0 / bluray_compat=0 / constrained_intra=0 / bframes=3 / b_pyramid=2 / b_adapt=1 / b_bias=0 / direct=1 / weightb=1 / open_gop=0 / weightp=2 / keyint=250 / keyint_min=25 / scenecut=40 / intra_refresh=0 / rc_lookahead=40 / rc=abr / mbtree=1 / bitrate=4100 / ratetol=1.0 / qcomp=0.60 / qpmin=0 / qpmax=69 / qpstep=4 / ip_ratio=1.40 / aq=1:1.00
Default                                  : Да
Forced                                   : Нет
DURATION                                 : 01:44:50.285000000
Аудио
Идентификатор                            : 2
Формат                                   : AC-3
Формат/Информация                        : Audio Coding 3
Расширение режима                        : CM (complete main)
Параметр Endianness формата              : Big
Идентификатор кодека                     : A_AC3
Продолжительность                        : 1 ч. 44 м.
Вид битрейта                             : Постоянный
Битрейт                                  : 128 Кбит/сек
Каналы                                   : 2 канала
Расположение каналов                     : Front: L R
Частота                                  : 48,0 КГц
Частота кадров                           : 31,250 кадров/сек (1536 spf)
Битовая глубина                          : 32 бит
Метод сжатия                             : С потерями
Размер потока                            : 96,0 Мбайт (3%)
Библиотека кодирования                   : Lavc57.17.100 ac3
Язык                                     : Russian
Default                                  : Нет
Forced                                   : Нет
DURATION                                 : 01:44:50.312000000
Скриншоты:
       
[

_________________
Беру чужие сборки Windows, обновляю и вот они уже мои...
Other forum [Profile] [PM]
Display posts from previous:    
Reply to topic

The time now is: Today 15:43

All times are GMT + 3 Hours



You cannot post new topics in this forum
You cannot reply to topics in this forum
You cannot edit your posts in this forum
You cannot delete your posts in this forum
You cannot vote in polls in this forum
You cannot attach files in this forum
You cannot download files in this forum