Today is a free download without charge Download

Первый / Առաջինը (Роберт Саакянц) [1979, СССР, мультфильм для взрослых, WEBRip]

Reply to topic
 
Author
Message

Omen ®

Longevity: 7 years 11 months

Posts: 181087

Торрент-статистика

Post 10-Apr-2016 06:03

[Quote]

Первый / Առաջինը
Страна: СССР (Армянская республика)
Жанр: мультфильм для взрослых
Продолжительность: 00:05:37
Год выпуска: 1979
Перевод: не требуется
Русские субтитры: нет
Режиссёр: Роберт Саакянц
Описание: Сатирический мультфильм о вреде пьянства.
Качество: WEBRip
Формат: AVI
Видео: 2366 kbps, 688х496 (1.387), 25.000 fps, MPEG-4 Visual (XviD)
Аудио: 192 kbps, 44.1 kHz, 2 channels, MPEG Audio (MP3)

Подробные технические данные

GeneralComplete name : Первый (1979).aviFormat : AVIFormat/Info : Audio Video InterleaveFile size : 103 MiBDuration : 5mn 37sOverall bit rate : 2 568 KbpsWriting application : VirtualDubMod 1.5.10.2 (build 2540/release)Writing library : VirtualDubMod build 2540/release
VideoID : 0Format : MPEG-4 VisualFormat profile : Advanced [email protected] settings, BVOP : 2Format settings, QPel : NoFormat settings, GMC : No warppointsFormat settings, Matrix : Default (H.263)Codec ID : XVIDCodec ID/Hint : XviDDuration : 5mn 37sBit rate : 2 366 KbpsWidth : 688 pixelsHeight : 496 pixelsDisplay aspect ratio : 1.387Frame rate : 25.000 fpsColor space : YUVChroma subsampling : 4:2:0Bit depth : 8 bitsScan type : ProgressiveCompression mode : LossyBits/(Pixel*Frame) : 0.277Stream size : 95.1 MiB (92%)Writing library : XviD 64
AudioID : 1Format : MPEG AudioFormat version : Version 1Format profile : Layer 3Codec ID : 55Codec ID/Hint : MP3Duration : 5mn 37sBit rate mode : ConstantBit rate : 192 KbpsChannel(s) : 2 channelsSampling rate : 44.1 KHzCompression mode : LossyStream size : 7.72 MiB (7%)Alignment : Split accross interleavesInterleave, duration : 40 ms (1.00 video frame)Interleave, preload duration : 500 ms

Скриншоты

Other forum [Profile] [PM]
Display posts from previous:    
Reply to topic

The time now is: Today 11:42

All times are GMT + 3 Hours



You cannot post new topics in this forum
You cannot reply to topics in this forum
You cannot edit your posts in this forum
You cannot delete your posts in this forum
You cannot vote in polls in this forum
You cannot attach files in this forum
You cannot download files in this forum