Today is a free download without charge Download

Пираты! Банда неудачников / The Pirates! Band of Misfits (2012) [1080p] BDRemux

Reply to topic
 
Author
Message

KirovSOFT ®

Gender:

Longevity: 8 years 8 months

Posts: 998

Location: Кировская область -Оричи

Торрент-статистика

Post 08-Aug-2012 20:21

[Quote]

Пираты! Банда неудачников / The Pirates! Band of Misfits (2012) BDRemux-«Спасайся кто может»-
Русское название: Пираты! Банда неудачников
Оригинальное название: The Pirates! Band of Misfits
Год выпуска: 2012
Жанр: Мультфильм, Комедия, Приключения, Семейный
Описание:
Экранизация первой книги из серии романов писателя Гидеона Дефо, рассказывающих о банде незадачливых пиратов. В первой части пираты прибывают в Лондон, где знакомятся с молодым Чарльзом Дарвином и говорящим шимпанзе по имени Мистер Бобо, а также столкнутся с врагами, которые хотят их уничтожить.
Режиссеры: Питер Лорд, Джефф Ньюитт
Актеры: Хью Грант, Брендан Глисон, Джереми Пивен, Брайан Блессид, Ленни Генри, Сальма Хайек, Коннор Бирн, Мартин Фриман, Эшли Дженсен, Питер Лорд
Продолжительность: 01:28:05
Перевод: Дублированный
Язык субтитров: Русский (forced), Английский
-ВИДЕО:
Видеокодек: MPEG-4 AVC/H.264
Битрейт видео: ~23,8 Mbps
Размер кадра: 1920 х 1080
Качество видео: BDRemux-ЗВУК:
Аудио 1: Русский, AC3 5.1, 448 kbps, 48 kHz (дубляж)
Аудио 2: Украинский, AC3 5.1, 448 kbps, 48 kHz (дубляж)
Аудио 3: Английский, DTS 5.1, 1510 kbps, 48 kHz (оригинал)-Сэмпл: Ссылка-

Mediainfo:

Общее
Уникальный идентификатор : 179912739039334922907934862680906170959 (0x8759EEE2DEAA13CD834EB423BABA824F)
Полное имя : The.Pirates!.Band.Of.Misfits.2012.1080p.BDRemux.mkv
Формат : Matroska
Версия формата : Version 2
Размер файла : 16,1 Гбайт
Продолжительность : 1 ч. 28 м.
Режим общего битрейта : Переменный
Общий поток : 26,2 Мбит/сек
Дата кодирования : UTC 2012-08-08 11:19:14
Программа кодирования : mkvmerge v5.2.0 ('I can't explain') built on Dec 18 2011 18:12:03
Библиотека кодирования : libebml v1.2.3 + libmatroska v1.3.0
Видео
Идентификатор : 1
Формат : AVC
Формат/Информация : Advanced Video Codec
Профиль формата : [url=mailto:[email protected]][email protected][/url]
Параметр CABAC формата : Да
Параметр ReFrames формата : 2 кадра
Режим смешивания : Container [email protected]
Идентификатор кодека : V_MPEG4/ISO/AVC
Продолжительность : 1 ч. 28 м.
Вид битрейта : Переменный
Битрейт : 23,8 Мбит/сек
Максимальный битрейт : 35,0 Мбит/сек
Ширина : 1920 пикселей
Высота : 1080 пикселей
Соотношение сторон : 16:9
Частота кадров : 23,976 кадра/сек
Цветовое пространство : YUV
Субдискретизация насыщенности : 4:2:0
Битовая глубина : 8 бит
Тип развёртки : Прогрессивная
Бит/(Пиксели*Кадры) : 0.478
Размер потока : 14,3 Гбайт (89%)
Библиотека кодирования : x264 core 125 r2200 999b753
Настройки программы : cabac=1 / ref=1 / deblock=1:0:0 / analyse=0x3:0x3 / me=dia / subme=1 / psy=1 / psy_rd=1.00:0.00 / mixed_ref=0 / me_range=16 / chroma_me=1 / trellis=0 / 8x8dct=1 / cqm=0 / deadzone=21,11 / fast_pskip=1 / chroma_qp_offset=0 / threads=3 / lookahead_threads=1 / sliced_threads=0 / slices=4 / nr=0 / decimate=1 / interlaced=0 / bluray_compat=1 / constrained_intra=0 / bframes=3 / b_pyramid=0 / b_adapt=1 / b_bias=0 / direct=1 / weightb=1 / open_gop=0 / weightp=1 / keyint=24 / keyint_min=1 / scenecut=40 / intra_refresh=0 / rc_lookahead=0 / rc=abr / mbtree=0 / bitrate=23752 / ratetol=1.0 / qcomp=0.60 / qpmin=0 / qpmax=69 / qpstep=4 / vbv_maxrate=35000 / vbv_bufsize=30000 / nal_hrd=vbr / ip_ratio=1.10 / pb_ratio=1.10 / aq=1:1.00
Язык : English
Default : Да
Forced : Нет
Аудио #1
Идентификатор : 2
Формат : AC-3
Формат/Информация : Audio Coding 3
Расширение режима : CM (complete main)
Параметр Endianness формата : Big
Идентификатор кодека : A_AC3
Продолжительность : 1 ч. 28 м.
Вид битрейта : Постоянный
Битрейт : 448 Кбит/сек
Каналы : 6 каналов
Расположение каналов : Front: L C R, Side: L R, LFE
Частота : 48,0 КГц
Битовая глубина : 16 бит
Метод сжатия : С потерями
Размер потока : 282 Мбайт (2%)
Заголовок : DUB
Язык : Russian
Default : Да
Forced : Нет
Аудио #2
Идентификатор : 3
Формат : AC-3
Формат/Информация : Audio Coding 3
Расширение режима : CM (complete main)
Параметр Endianness формата : Big
Идентификатор кодека : A_AC3
Продолжительность : 1 ч. 28 м.
Вид битрейта : Постоянный
Битрейт : 448 Кбит/сек
Каналы : 6 каналов
Расположение каналов : Front: L C R, Side: L R, LFE
Частота : 48,0 КГц
Битовая глубина : 16 бит
Метод сжатия : С потерями
Размер потока : 282 Мбайт (2%)
Заголовок : DUB
Язык : Ukrainian
Default : Нет
Forced : Нет
Аудио #3
Идентификатор : 4
Формат : DTS
Формат/Информация : Digital Theater Systems
Идентификатор кодека : A_DTS
Продолжительность : 1 ч. 28 м.
Вид битрейта : Постоянный
Битрейт : 1510 Кбит/сек
Каналы : 6 каналов
Расположение каналов : Front: L C R, Side: L R, LFE
Частота : 48,0 КГц
Битовая глубина : 24 бит
Метод сжатия : С потерями
Размер потока : 951 Мбайт (6%)
Язык : English
Default : Нет
Forced : Нет
Текст #1
Идентификатор : 5
Формат : UTF-8
Идентификатор кодека : S_TEXT/UTF8
Идентификатор кодека/Информация : UTF-8 Plain Text
Заголовок : Forced
Язык : Russian
Default : Да
Forced : Нет
Текст #2
Идентификатор : 6
Формат : UTF-8
Идентификатор кодека : S_TEXT/UTF8
Идентификатор кодека/Информация : UTF-8 Plain Text
Язык : English
Default : Нет
Forced : Нет
Меню
00:00:00.000 : en:00:00:00.000
00:08:36.683 : en:00:08:36.683
00:15:11.661 : en:00:15:11.661
00:20:30.438 : en:00:20:30.438
00:27:04.706 : en:00:27:04.706
00:33:06.985 : en:00:33:06.985
00:37:23.491 : en:00:37:23.491
00:42:03.438 : en:00:42:03.438
00:47:26.010 : en:00:47:26.010
00:51:54.194 : en:00:51:54.194
00:56:39.521 : en:00:56:39.521
01:01:08.206 : en:01:01:08.206
01:07:10.485 : en:01:07:10.485
01:11:52.183 : en:01:11:52.183
01:16:21.285 : en:01:16:21.285
01:19:15.668 : en:01:19:15.668

Скриншоты:

       
       

_________________
Other forum [Profile] [PM]
Display posts from previous:    
Reply to topic

The time now is: Today 00:30

All times are GMT + 3 Hours



You cannot post new topics in this forum
You cannot reply to topics in this forum
You cannot edit your posts in this forum
You cannot delete your posts in this forum
You cannot vote in polls in this forum
You cannot attach files in this forum
You cannot download files in this forum