Today is a free download without charge Download

Счастливый случай / It Could Happen to You (Эндрю Бергмэн)[1994 г., Комедия, драма, романтика, BDRip 1080р]

Reply to topic
 
Author
Message

Delia ®

Gender:

Longevity: 10 years

Posts: 1821

Торрент-статистика

Post 07-Aug-2012 12:14

[Quote]

Счастливый случай / It Could Happen to You«A cop. A waitress. A lottery ticket.»--
Год выпуска: 1994
Страна: США
Жанр: драма, мелодрама, комедия, ...
Продолжительность: 01:41:31
Перевод: Профессиональный (многоголосый закадровый)
Режиссер: Эндрю Бергман
Сценарий: Джейн Андерсон
Продюсер: Майк Лобелл, Гари Эделсон, Крэйг Баумгартен, ...
Оператор: Калеб Дешанель
Композитор: Картер Бёруэлл
Художник: Билл Грум, Дэннис Брэдфорд, Джули Уайсс, ...
Монтаж: Бэрри Малкин-В ролях: Николас Кейдж (Nicolas Cage), Бриджит Фонда (Bridget Fonda), Рози Перес (Rosie Perez), Уенделл Пирс (Wendell Pierce), Айзек Хейз (Isaac Hayes), Виктор Рохас (Victor Rojas), Сеймур Кэссел (Seymour Cassel), Стэнли Туччи (Stanley Tucci), Дж. Э. Фримен (J.E. Freeman), Ред Баттонс (Red Buttons), Ричард Дженкинс (Richard Jenkins), Роберт Дорфман (Robert Dorfman), Чарльз Буш (Charles Busch), Беатрис Уинд (Beatrice Winde), Джинни Янг (Ginny Yang), Рене Ривера (Rene Rivera), Энджел Дэвид (Angel David), Анна Лобелл (Anna Lobell), Клаудия Шир (Claudia Shear), Jimmy Sabater
Описание: Самая большая неудача в жизни полицейского Чарли Лэнга — это его жена, которая с утра до вечера может говорить и думать только о деньгах. У него самого их не хватает даже на чаевые очаровательной официантке. В кармане — только лотерейный билет, купленный по совету мудрой супруги.Не задумываясь, Чарли обещает девушке половину своего выигрыша. И вот четыре миллиона долларов сваливаются ему на голову. Первую половину суммы уже успешно тратит его жена, окончательно поглупевшая от такого счастья. Теперь Чарли богат, но он не забыл, что еще должен заплатить чаевые&3; в два миллиона долларов.-Рейтинг MPAA: --Релиз группы:
--Качество: BDRip
Формат: MKV
Видео кодек: H.264 (AVC)
Аудио кодеk: AC3
Видео: 1920x1040 (16:9), 23.976 fps, AVC, 10.1 Mbps
Аудио: AC3, 448 Kbps, 48.0 KHz, 6 ch (MVO )
Аудио #2: AC3, 256 Kbps, 48.0 KHz, 2 ch (VO- Пронин )
Аудио #3: AC3, 384 Kbps, 48.0 KHz, 6 ch ( оригинал )

МедиаИнфо

Код:
General
Complete name                    : It Could Happen to You(1994)BDRip-F.HD.mkv
Format                           : Matroska
File size                        : 7.95 GiB
Duration                         : 1h 41mn
Overall bit rate                 : 11.2 Mbps
Encoded date                     : UTC 2012-08-07 07:00:32
Writing application              : mkvmerge v5.7.0 ('The Whirlwind') built on Jul  8 2012 20:08:51
Writing library                  : libebml v1.2.3 + libmatroska v1.3.0
Video
ID                               : 1
Format                           : AVC
Format/Info                      : Advanced Video Codec
Format profile                   : [email protected]
Format settings, CABAC           : Yes
Format settings, ReFrames        : 4 frames
Muxing mode                      : Container [email protected]
Codec ID                         : V_MPEG4/ISO/AVC
Duration                         : 1h 41mn
Bit rate                         : 10.1 Mbps
Width                            : 1 920 pixels
Height                           : 1 040 pixels
Display aspect ratio             : 16:9
Frame rate                       : 23.976 fps
Color space                      : YUV
Chroma subsampling               : 4:2:0
Bit depth                        : 8 bits
Scan type                        : Progressive
Bits/(Pixel*Frame)               : 0.212
Stream size                      : 7.02 GiB (88%)
Writing library                  : x264 core 125 r2200 999b753
Encoding settings                : cabac=1 / ref=4 / deblock=1:-3:-3 / analyse=0x3:0x113 / me=umh / subme=10 / psy=1 / psy_rd=1.00:0.20 / mixed_ref=1 / me_range=32 / chroma_me=1 / trellis=2 / 8x8dct=1 / cqm=0 / deadzone=21,11 / fast_pskip=0 / chroma_qp_offset=1 / threads=6 / lookahead_threads=1 / sliced_threads=0 / nr=0 / decimate=1 / interlaced=0 / bluray_compat=0 / constrained_intra=0 / bframes=8 / b_pyramid=2 / b_adapt=2 / b_bias=0 / direct=3 / weightb=1 / open_gop=0 / weightp=2 / keyint=240 / keyint_min=23 / scenecut=40 / intra_refresh=0 / rc=2pass / mbtree=0 / bitrate=10126 / ratetol=1.0 / qcomp=0.80 / qpmin=5 / qpmax=51 / qpstep=4 / cplxblur=20.0 / qblur=0.5 / ip_ratio=1.40 / pb_ratio=1.30 / aq=2:0.90
Color primaries                  : BT.709-5, BT.1361, IEC 61966-2-4, SMPTE RP177
Transfer characteristics         : BT.709-5, BT.1361
Matrix coefficients              : BT.709-5, BT.1361, IEC 61966-2-4 709, SMPTE RP177
Audio #1
ID                               : 2
Format                           : AC-3
Format/Info                      : Audio Coding 3
Mode extension                   : CM (complete main)
Codec ID                         : A_AC3
Duration                         : 1h 41mn
Bit rate mode                    : Constant
Bit rate                         : 448 Kbps
Channel(s)                       : 6 channels
Channel positions                : Front: L C R, Side: L R, LFE
Sampling rate                    : 48.0 KHz
Bit depth                        : 16 bits
Stream size                      : 325 MiB (4%)
Title                            : MVO
Language                         : Russian
Audio #2
ID                               : 3
Format                           : AC-3
Format/Info                      : Audio Coding 3
Mode extension                   : CM (complete main)
Codec ID                         : A_AC3
Duration                         : 1h 41mn
Bit rate mode                    : Constant
Bit rate                         : 256 Kbps
Channel(s)                       : 2 channels
Channel positions                : Front: L R
Sampling rate                    : 48.0 KHz
Bit depth                        : 16 bits
Stream size                      : 186 MiB (2%)
Language                         : Russian
Audio #3
ID                               : 4
Format                           : AC-3
Format/Info                      : Audio Coding 3
Mode extension                   : CM (complete main)
Codec ID                         : A_AC3
Duration                         : 1h 41mn
Bit rate mode                    : Constant
Bit rate                         : 384 Kbps
Channel(s)                       : 6 channels
Channel positions                : Front: L C R, Side: L R, LFE
Sampling rate                    : 48.0 KHz
Bit depth                        : 16 bits
Stream size                      : 279 MiB (3%)
Menu
00:00:00.000                     : en:Chapter 01
00:06:47.657                     : en:Chapter 02
00:10:20.494                     : en:Chapter 03
00:16:38.622                     : en:Chapter 04
00:20:57.839                     : en:Chapter 05
00:30:12.769                     : en:Chapter 06
00:39:18.397                     : en:Chapter 07
00:45:06.120                     : en:Chapter 08
00:50:29.735                     : en:Chapter 09
00:58:12.572                     : en:Chapter 10
01:04:44.839                     : en:Chapter 11
01:11:42.548                     : en:Chapter 12
01:14:40.476                     : en:Chapter 13
01:19:02.738                     : en:Chapter 14
01:25:47.559                     : en:Chapter 15
01:34:36.295                     : en:Chapter 16

Знаете ли Вы, что...

» Фильм основан на реальной истории, произошедшей в марте 1984 года в Нью-Йорке с официанткой Филлис Пензо и офицером полиции Робертом Каннингеймом.


Скриншоты

     
     

_________________
Человек – это канат, натянутый между животным и сверхчеловеком, – канат над пропастью.
В человеке ценно то, что он мост, а не цель. Фридрих Ницше
Other forum [Profile] [PM]
Similar theme
Forum Topic Author Torrent Replies Last Post
./templates/default/images/folder_dl.gif Современная проза, классика, поэзия Хмелевская Иоанна - Слепое счастье [Меркулова Анна, (ЛИ), 2016 г., 192 kbps, MP3] Omen
1 | 0

0 | 531

0

2016-02-07 21:33
Omen Latest
Display posts from previous:    
Reply to topic

The time now is: Today 10:07

All times are GMT + 3 Hours



You cannot post new topics in this forum
You cannot reply to topics in this forum
You cannot edit your posts in this forum
You cannot delete your posts in this forum
You cannot vote in polls in this forum
You cannot attach files in this forum
You cannot download files in this forum