Today is a free download without charge Download

Носферату. Ужас ночи (Владимир Мариничев) [2010, Россия, мультфильм для взрослых, DVDRip]

Reply to topic
 
Author
Message

Omen ®

Longevity: 7 years 11 months

Posts: 181087

Торрент-статистика

Post 02-Apr-2016 15:00

[Quote]

Носферату. Ужас ночи

Страна: Россия
Жанр: мультфильм для взрослых
Продолжительность: 01:17:51
Год выпуска: 2010
Русские субтитры: нет

Режиссёр: Владимир Мариничев
Роли озвучивали: В.Мариничев, М.Хрусталев, А.Петров, Р.Бурлаков, Я.Петров, М.Сергеев, С.Куприянов, Ю.Рудина
Описание: Молодой клерк Джонатан отправляется за тридевять земель, в страну Трансильванию, лежащую у подножья Карпатских гор, и где, как известно по сказкам и фильмам обитают оборотни, вампиры и мрачный граф Дракула.
Только вот дело в том, что за тысячу столетий граф заскучал и впал в депрессию. Он мечтает развеяться в большом городе и выпить кровь у всех женщин мира. Подчинив себе Джонатана, Дракула на первом в мире самолете отправляется в Лондон. Правда, герои не знают о том, что в городе находится профессор Ван Хельсинг, знаменитый охотник на вампиров.

Качество: [url=viewtopic.php?t=3526566]DVDRip[/url]
Формат: AVI
Видео: 720x384 (1.88:1), 25 fps, XviD build 50 ~2218 kbps avg, 0.32 bit/pixel
Аудио: 48 kHz, AC3 Dolby Digital, 3/2 (L,C,R,l,r) + LFE ch, ~448 kbps
Субтитры: отсутствуют

Сравнение

http://screenshotcomparison.com/comparison/167759
не знаю, цветокоррекция это или нет. Но на лицензии картинка более светлая

Подробные технические данные

ОбщееПолное имя : H:\Носферату.Ужас.ночи.2010.dvdrip_[1.46].aviФормат : AVIФормат/Информация : Audio Video InterleaveРазмер файла : 1,46 ГбайтПродолжительность : 1 ч. 17 м.Общий поток : 2676 Кбит/секПрограмма кодирования : VirtualDubMod 1.5.10.3 | www.virtualdub-fr.org || (build 2550/release)Библиотека кодирования : VirtualDubMod build 2550/release
ВидеоИдентификатор : 0Формат : MPEG-4 VisualПрофиль формата : Advanced [email protected]Параметр BVOP формата : 2Параметр QPel формата : НетПараметр GMC формата : Без точки переходаПараметр матрицы формата : ВыборочнаяИдентификатор кодека : XVIDИдентификатор кодека/Подсказка : XviDПродолжительность : 1 ч. 17 м.Битрейт : 2219 Кбит/секШирина : 720 пикселейВысота : 384 пикселяСоотношение сторон : 1,85:1Частота кадров : 25,000 кадров/секЦветовое пространство : YUVСубдискретизация насыщенности : 4:2:0Битовая глубина : 8 битТип развёртки : ПрогрессивнаяМетод сжатия : С потерямиБит/(Пиксели*Кадры) : 0.321Размер потока : 1,21 Гбайт (83%)Библиотека кодирования : XviD 1.2.1 (UTC 2008-12-04)
АудиоИдентификатор : 1Формат : AC-3Формат/Информация : Audio Coding 3Расширение режима : CM (complete main)Параметр Endianness формата : BigИдентификатор кодека : 2000Продолжительность : 1 ч. 17 м.Вид битрейта : ПостоянныйБитрейт : 448 Кбит/секКаналы : 6 каналовРасположение каналов : Front: L C R, Side: L R, LFEЧастота : 48,0 КГцБитовая глубина : 16 битМетод сжатия : С потерямиРазмер потока : 249 Мбайт (17%)Выравнивание : Разделение по промежуткамПродолжительность промежутка : 40 мс. (1,00 видеокадр)Время предзагрузки промежутка : 500 мс.
Other forum [Profile] [PM]
Display posts from previous:    
Reply to topic

The time now is: Today 22:50

All times are GMT + 3 Hours



You cannot post new topics in this forum
You cannot reply to topics in this forum
You cannot edit your posts in this forum
You cannot delete your posts in this forum
You cannot vote in polls in this forum
You cannot attach files in this forum
You cannot download files in this forum