Today is a free download without charge Download

Чемпионы: Быстрее. Выше. Сильнее (Артем Аксененко) [2016, Россия, спорт, драма,биография, BDRip 720p]

Reply to topic
 
Author
Message

Omen ®

Longevity: 8 years 10 months

Posts: 181086

Торрент-статистика

Post 31-Mar-2016 18:03

[Quote]

-Чемпионы: Быстрее. Выше. Сильнее«9 ОЛИМПИЙСКИХ ПОБЕД НА ТРОИХ» -Страна: Россия
Жанр: спорт, драма, биография
Год выпуска: 2016
Продолжительность: 01:43:45-Перевод: Не требуется
Cубтитры: нет
Оригинальная аудиодорожка: русский-Режиссёр: Артем Аксененко-В ролях: Сергей Бондарчук, Евгений Пронин, Кристина Асмус, Егор Корешков, Александр Робак, Дарья Екамасова, Сергей Сосновский, Виктор Хориняк, Джемал Тетруашвили, Кристина Шаповалова-Описание: В мире их называли «Асфальтоукладчик», «Королева брусьев» и «Русская торпеда». Борец Александр Карелин, гимнастка Светлана Хоркина и пловец Александр Попов — реальные истории трех легендарных российских спортсменов, на общем счету которых 9 золотых олимпийских медалей и больше тысячи побед! У каждого был свой путь, своя уникальная драматическая история восхождения. Три яркие новеллы, основанные на реальных событиях, расскажут о том, что осталось за кадром спортивной хроники и каким был путь к высшему спортивному достижению — Олимпийский чемпион. Они стали легендами мирового спорта и дали возможность всей стране сказать «Мы победили!».- -Качество видео: BDRip 720p
Формат видео: MKV
Видео: AVC, 1 280x544 (2.35:1), 24.000 fps, 5 384 Kbps, 0.322 Bits/(Pixel*Frame)
Аудио: DTS 48 kHz, AC3 Dolby Digital, 3/2 (L,C,R,l,r) + LFE ch, ~1 509 kbps [iTunes]-

MediaInfo

General
Unique ID : 252143754356061034182603090026655252264 (0xBDB11EE4EA12B4D49FF9E6C825B5FF28)
Complete name : D:\Фильмы\chempiony-bystree-vyshe-silnee.BDRip.72OP.mkv
Format : Matroska
Format version : Version 2
File size : 5.00 GiB
Duration : 1h 43mn
Overall bit rate : 6 899 Kbps
Encoded date : UTC 2016-03-30 20:44:28
Writing application : mkvmerge v8.3.0 ('Over the Horizon') 64bit
Writing library : libebml v1.3.1 + libmatroska v1.4.2
Video
ID : 1
Format : AVC
Format/Info : Advanced Video Codec
Format profile : [email protected]
Format settings, CABAC : Yes
Format settings, ReFrames : 4 frames
Codec ID : V_MPEG4/ISO/AVC
Duration : 1h 43mn
Bit rate : 5 384 Kbps
Width : 1 280 pixels
Height : 544 pixels
Display aspect ratio : 2.35:1
Frame rate mode : Constant
Frame rate : 24.000 fps
Color space : YUV
Chroma subsampling : 4:2:0
Bit depth : 8 bits
Scan type : Progressive
Bits/(Pixel*Frame) : 0.322
Stream size : 3.90 GiB (78%)
Language : Russian
Default : Yes
Forced : No
Audio
ID : 2
Format : DTS
Format/Info : Digital Theater Systems
Mode : 16
Format settings, Endianness : Big
Codec ID : A_DTS
Duration : 1h 43mn
Bit rate mode : Constant
Bit rate : 1 509 Kbps
Channel(s) : 6 channels
Channel positions : Front: L C R, Side: L R, LFE
Sampling rate : 48.0 KHz
Frame rate : 93.750 fps (512 spf)
Bit depth : 24 bits
Compression mode : Lossy
Stream size : 1.09 GiB (22%)
Language : Russian
Default : Yes
Forced : No
Text
ID : 3
Format : PGS
Muxing mode : zlib
Codec ID : S_HDMV/PGS
Codec ID/Info : Picture based subtitle format used on BDs/HD-DVDs
Duration : 1h 37mn
Bit rate : 3 803 bps
Count of elements : 1621
Stream size : 2.66 MiB (0%)
Language : Russian
Default : No
Forced : No
Menu
00:00:00.000 : ru:
00:01:07.208 : ru:
00:14:04.333 : ru:
00:27:26.333 : ru:
00:40:01.250 : ru:
00:49:56.958 : ru:
01:00:13.250 : ru:
01:14:04.666 : ru:
01:27:28.541 : ru:
-

Скриншот с названием фильма

Скриншоты



-
Other forum [Profile] [PM]
Display posts from previous:    
Reply to topic

The time now is: Today 00:01

All times are GMT + 3 Hours



You cannot post new topics in this forum
You cannot reply to topics in this forum
You cannot edit your posts in this forum
You cannot delete your posts in this forum
You cannot vote in polls in this forum
You cannot attach files in this forum
You cannot download files in this forum