Today is a free download without charge Download

В гостях у сказки. Сборник мультфильмов. Выпуск 1. (Опять двойка; Варежка; Катерок; Бобик в гостях у Барбоса; Приключения Васи Куролесова. "Владимир Попов") [1957-1981, CCCР, Детектив, приключения, DVDRip]Крупный План, реставрация

Reply to topic
 
Author
Message

Omen ®

Longevity: 7 years 11 months

Posts: 181087

Торрент-статистика

Post 30-Mar-2016 21:04

[Quote]

В гостях у сказки. Сборник мультфильмов. Выпуск 1. -Страна: CCCР
Жанр: Мультфильмы, Детектив, приключения
Продолжительность: 01:03:07
Год выпуска: 1957-1981
Перевод: Не требуется
Русские субтитры: нет-Режиссёр: Евгений Райковский, Борис Степанцев, Владимир Попов-Роли озвучивали:
Михаил Кононов — Вася Куролесов
Вера Васильева — Евлампиевна, мама Васи
Лев Дуров — Рашпиль
Борис Новиков — Курочкин
Вячеслав Невинный — старшина Тараканов / старик-железнодорожник в Тарасовке
Евгений Леонов — Батон
Юрий Яковлев — капитан Болдырев-Список мультфильмов:
Опять двойка (1957) - 20:08
Варежка (1967) - 9:57
Катерок (1970) - 9:44
Бобик в гостях у Барбоса (1977) - 8:36
Приключения Васи Куролесова (1981) - 25:03-Доп. информация: Год издания диска: 2005- -Качество: DVDRip
Формат: AVI
Видео: 640x480 (1.33:1), 25 fps, XviD build 50 ~1892 kbps avg, 0.25 bit/pixel
Аудио: 48 kHz, AC3 Dolby Digital, 3/2 (L,C,R,l,r) + LFE ch, ~192 kbps
Субтитры: "отсутствуют"

Подробные технические данные

GeneralComplete name : C:\Users\Mersicc\Videos\В гостях у сказки. Сборник мультфильмов. Выпуск 1\Приключения Васи Куролесова (1981).aviFormat : AVIFormat/Info : Audio Video InterleaveFile size : 375 MiBDuration : 25mn 3sOverall bit rate : 2 094 KbpsWriting application : VirtualDubMod 1.5.10.3 | www.virtualdub-fr.org || (build 2550/release)Writing library : VirtualDubMod build 2550/release
VideoID : 0Format : MPEG-4 VisualFormat profile : Advanced [email protected] settings, BVOP : 1Format settings, QPel : NoFormat settings, GMC : No warppointsFormat settings, Matrix : Default (MPEG)Codec ID : XVIDCodec ID/Hint : XviDDuration : 25mn 3sBit rate : 1 892 KbpsWidth : 640 pixelsHeight : 480 pixelsDisplay aspect ratio : 4:3Frame rate : 25.000 fpsColor space : YUVChroma subsampling : 4:2:0Bit depth : 8 bitsScan type : ProgressiveCompression mode : LossyBits/(Pixel*Frame) : 0.246Stream size : 339 MiB (90%)Writing library : XviD 1.2.1 (UTC 2008-12-04)
AudioID : 1Format : AC-3Format/Info : Audio Coding 3Mode extension : CM (complete main)Format settings, Endianness : BigCodec ID : 2000Duration : 25mn 2sBit rate mode : ConstantBit rate : 192 KbpsChannel(s) : 6 channelsChannel positions : Front: L C R, Side: L R, LFESampling rate : 48.0 KHzBit depth : 16 bitsCompression mode : LossyStream size : 34.4 MiB (9%)Alignment : Split accross interleavesInterleave, duration : 40 ms (1.00 video frame)Interleave, preload duration : 500 ms
Other forum [Profile] [PM]
Display posts from previous:    
Reply to topic

The time now is: Today 03:51

All times are GMT + 3 Hours



You cannot post new topics in this forum
You cannot reply to topics in this forum
You cannot edit your posts in this forum
You cannot delete your posts in this forum
You cannot vote in polls in this forum
You cannot attach files in this forum
You cannot download files in this forum