Today is a free download without charge Download

Семьянин / The Family Man (Бретт Рэтнер / Brett Ratner) [2000, США, фэнтези, комедия, мелодрама, драма, BDRip 1080p]

Reply to topic
 
Author
Message

Delia ®

Gender:

Longevity: 10 years

Posts: 1821

Торрент-статистика

Post 06-Aug-2012 13:07

[Quote]

Семьянин / The Family Man«А вдруг...»--
Год выпуска: 2000
Страна: США
Жанр: драма, мелодрама, комедия, ...
Продолжительность: 02:05:58
Перевод: Профессиональный (дублированный)
Субтитры: Russian , english (srt)
Режиссер: Бретт Рэтнер
Сценарий: Дэвид Даймонд, Дэвид Вайсман
Продюсер: Марк Абрахам, Тони Людвиг, Алан Ричи, ...
Оператор: Данте Спинотти
Композитор: Дэнни Элфман
Художник: Кристи Зиа, Стив Сэклад, Бетси Хайман, ...
Монтаж: Марк Хелфрич- В ролях: Николас Кейдж (Nicolas Cage), Теа Леони (Tea Leoni), Дон Чидл (Don Cheadle), Джереми Пивен (Jeremy Piven), Сол Рубинек (Saul Rubinek), Йозеф Зоммер (Josef Sommer), Макензи Вега (Makenzie Vega), Джейк Миллкович (Jake Milkovich), Райан Миллкович (Ryan Milkovich), Лиза Торнхилл (Lisa Thornhill), Харви Преснелл (Harve Presnell), Мэри Бет Хёрт (Mary Beth Hurt), Эмбер Валлетта (Amber Valletta), Френсин Йорк (Francine York), Рут Уильямсон (Ruth Williamson), Джон Ф. О’Донохью (John F. O'Donohue), Daniel Whitner, Люси Лин (Lucy Lin), Лиза ЛоЦицеро (Lisa LoCicero), Уасс М. Стивенс (Wass Stevens)
Описание: Чтобы вы предпочли: быть президентом крупной инвестиционной компании, жить в роскошной квартире с видом на миллиард долларов, раскатывать на последней модели «Феррари» и при этом оставаться холостяком или работать продавцом автопокрышек у «Большого Эда», покупать одежду в супермаркете и передвигаться по родному пригороду на вместительном и еще не очень старом минивене?Не спешите с ответом, ведь недаром судьба, в виде «обдолбанного» чернокожего деда мороза, преподносит Джеку шанс попробовать оба варианта. И поверьте, несмотря на обилие комичных ситуаций, которые теперь являются неотъемлемой частью его жизни, Джеку предстоит непростой выбор.-Рейтинг MPAA: --Релиз группы:
--Качество: BDRip1080p
Формат: MKV
Видео кодек: H.264 (AVC)
Аудио кодеk: AC3
Видео: 1920x816 (2.35:1), 23.976 fps, AVC, 7 439 Kbps
Аудио:
Аудио #1: AC3, 192 Kbps, 48.0 KHz, 2 ch (dub)
Аудио #2: AC3, 192 Kbps, 48.0 KHz, 2 ch ( MVO РТР )
Аудио #3: AC3, 448 Kbps, 48.0 KHz, 6 ch ( MVO R-5 )
Аудио #4: AC3, 384 Kbps, 48.0 KHz, 6 ch ( AVO- Живов )
Аудио #5: AC3, 384 Kbps, 48.0 KHz, 6 ch ( English )

x264

Код:
-[NoImage] x264 [info]: frame I:1326  Avg QP:14.55  size:141091
-[NoImage] x264 [info]: frame P:35415 Avg QP:16.75  size: 64226
-[NoImage] x264 [info]: frame B:144387 Avg QP:19.08  size: 31569

МедиаИнфо

Код:
Общее
Уникальный идентификатор                 : 182425564456736565395039748333221011430 (0x893DE2BE9ACF2F78A8B49C88C0795FE6)
Полное имя                               : E:\торрент\Semjyanin.2000.BDRip-F.HD.mkv
Формат                                   : Matroska
Версия формата                           : Version 2
Размер файла                             : 7,95 Гбайт
Продолжительность                        : 2 ч. 5 м.
Общий поток                              : 9032 Кбит/сек
Дата кодирования                         : UTC 2012-08-06 08:20:04
Программа кодирования                    : mkvmerge v5.7.0 ('The Whirlwind') built on Jul  8 2012 20:08:51
Библиотека кодирования                   : libebml v1.2.3 + libmatroska v1.3.0
Видео
Идентификатор                            : 1
Формат                                   : AVC
Формат/Информация                        : Advanced Video Codec
Профиль формата                          : [email protected]
Параметр CABAC формата                   : Да
Параметр ReFrames формата                : 5 кадров
Идентификатор кодека                     : V_MPEG4/ISO/AVC
Продолжительность                        : 2 ч. 5 м.
Битрейт                                  : 7439 Кбит/сек
Ширина                                   : 1920 пикселей
Высота                                   : 816 пикселей
Соотношение сторон                       : 2,35:1
Частота кадров                           : 23,976 кадра/сек
Цветовое пространство                    : YUV
Субдискретизация насыщенности            : 4:2:0
Битовая глубина                          : 8 бит
Тип развёртки                            : Прогрессивная
Бит/(Пиксели*Кадры)                      : 0.198
Размер потока                            : 6,38 Гбайт (80%)
Библиотека кодирования                   : x264 core 125 r2200 999b753
Настройки программы                      : cabac=1 / ref=5 / deblock=1:-2:-2 / analyse=0x3:0x113 / me=umh / subme=10 / psy=1 / psy_rd=1.00:0.10 / mixed_ref=1 / me_range=32 / chroma_me=1 / trellis=2 / 8x8dct=1 / cqm=0 / deadzone=21,11 / fast_pskip=0 / chroma_qp_offset=1 / threads=6 / lookahead_threads=1 / sliced_threads=0 / nr=0 / decimate=1 / interlaced=0 / bluray_compat=0 / constrained_intra=0 / bframes=8 / b_pyramid=2 / b_adapt=2 / b_bias=0 / direct=3 / weightb=1 / open_gop=0 / weightp=2 / keyint=240 / keyint_min=23 / scenecut=40 / intra_refresh=0 / rc=2pass / mbtree=0 / bitrate=7439 / ratetol=1.0 / qcomp=0.80 / qpmin=5 / qpmax=51 / qpstep=4 / cplxblur=20.0 / qblur=0.5 / ip_ratio=1.40 / pb_ratio=1.30 / aq=2:0.90
Язык                                     : English
Default                                  : Да
Forced                                   : Нет
Основные цвета                           : BT.709-5, BT.1361, IEC 61966-2-4, SMPTE RP177
Характеристики трансфера                 : BT.709-5, BT.1361
Коэффициенты матрицы                     : BT.709-5, BT.1361, IEC 61966-2-4 709, SMPTE RP177
Аудио #1
Идентификатор                            : 2
Формат                                   : AC-3
Формат/Информация                        : Audio Coding 3
Профиль формата                          : Dolby Digital
Расширение режима                        : CM (complete main)
Параметр Endianness формата              : Big
Идентификатор кодека                     : A_AC3
Продолжительность                        : 2 ч. 5 м.
Вид битрейта                             : Постоянный
Битрейт                                  : 192 Кбит/сек
Каналы                                   : 2 канала
Расположение каналов                     : Front: L R
Частота                                  : 48,0 КГц
Битовая глубина                          : 16 бит
Метод сжатия                             : С потерями
Размер потока                            : 173 Мбайт (2%)
Заголовок                                : DUB
Язык                                     : Russian
Default                                  : Да
Forced                                   : Нет
Аудио #2
Идентификатор                            : 3
Формат                                   : AC-3
Формат/Информация                        : Audio Coding 3
Профиль формата                          : Dolby Digital
Расширение режима                        : CM (complete main)
Параметр Endianness формата              : Big
Идентификатор кодека                     : A_AC3
Продолжительность                        : 2 ч. 5 м.
Вид битрейта                             : Постоянный
Битрейт                                  : 192 Кбит/сек
Каналы                                   : 2 канала
Расположение каналов                     : Front: L R
Частота                                  : 48,0 КГц
Битовая глубина                          : 16 бит
Метод сжатия                             : С потерями
Размер потока                            : 173 Мбайт (2%)
Заголовок                                : MVO РТР
Язык                                     : Russian
Default                                  : Нет
Forced                                   : Нет
Аудио #3
Идентификатор                            : 4
Формат                                   : AC-3
Формат/Информация                        : Audio Coding 3
Расширение режима                        : CM (complete main)
Параметр Endianness формата              : Big
Идентификатор кодека                     : A_AC3
Продолжительность                        : 2 ч. 5 м.
Вид битрейта                             : Постоянный
Битрейт                                  : 448 Кбит/сек
Каналы                                   : 6 каналов
Расположение каналов                     : Front: L C R, Side: L R, LFE
Частота                                  : 48,0 КГц
Битовая глубина                          : 16 бит
Метод сжатия                             : С потерями
Размер потока                            : 404 Мбайт (5%)
Заголовок                                : MVO R-5
Язык                                     : Russian
Default                                  : Нет
Forced                                   : Нет
Аудио #4
Идентификатор                            : 5
Формат                                   : AC-3
Формат/Информация                        : Audio Coding 3
Расширение режима                        : CM (complete main)
Параметр Endianness формата              : Big
Идентификатор кодека                     : A_AC3
Продолжительность                        : 2 ч. 5 м.
Вид битрейта                             : Постоянный
Битрейт                                  : 384 Кбит/сек
Каналы                                   : 6 каналов
Расположение каналов                     : Front: L C R, Side: L R, LFE
Частота                                  : 48,0 КГц
Битовая глубина                          : 16 бит
Метод сжатия                             : С потерями
Размер потока                            : 346 Мбайт (4%)
Заголовок                                : AVO- Живов
Язык                                     : Russian
Default                                  : Нет
Forced                                   : Нет
Аудио #5
Идентификатор                            : 6
Формат                                   : AC-3
Формат/Информация                        : Audio Coding 3
Расширение режима                        : CM (complete main)
Параметр Endianness формата              : Big
Идентификатор кодека                     : A_AC3
Продолжительность                        : 2 ч. 5 м.
Вид битрейта                             : Постоянный
Битрейт                                  : 384 Кбит/сек
Каналы                                   : 6 каналов
Расположение каналов                     : Front: L C R, Side: L R, LFE
Частота                                  : 48,0 КГц
Битовая глубина                          : 16 бит
Метод сжатия                             : С потерями
Размер потока                            : 346 Мбайт (4%)
Язык                                     : English
Default                                  : Нет
Forced                                   : Нет
Текст #1
Идентификатор                            : 7
Формат                                   : UTF-8
Идентификатор кодека                     : S_TEXT/UTF8
Идентификатор кодека/Информация          : UTF-8 Plain Text
Язык                                     : Russian
Default                                  : Нет
Forced                                   : Нет
Текст #2
Идентификатор                            : 8
Формат                                   : UTF-8
Идентификатор кодека                     : S_TEXT/UTF8
Идентификатор кодека/Информация          : UTF-8 Plain Text
Язык                                     : English
Default                                  : Нет
Forced                                   : Нет

Знаете ли Вы, что...

» Роскошный автомобиль Ferrari, использованный при съёмках фильма, на самом деле какое-то время принадлежал Николасу Кейджу. Актёр продал его за год до начала съёмок.
» Первоначально разработкой проекта занимался Кёртис Хэнсон, который должен был стать режиссёром картины.
» Съёмочный период: 14 ноября 1999 года по 22 марта 2000 года


Скриншоты

     
     

_________________
Человек – это канат, натянутый между животным и сверхчеловеком, – канат над пропастью.
В человеке ценно то, что он мост, а не цель. Фридрих Ницше
Other forum [Profile] [PM]
Display posts from previous:    
Reply to topic

The time now is: Today 10:31

All times are GMT + 3 Hours



You cannot post new topics in this forum
You cannot reply to topics in this forum
You cannot edit your posts in this forum
You cannot delete your posts in this forum
You cannot vote in polls in this forum
You cannot attach files in this forum
You cannot download files in this forum