Today is a free download without charge Download

Когда Гарри встретил Салли / When Harry Met Sally... (Роб Райнер / Rob Reiner) [1989, драма, мелодрама, комедия, BDRip 1080p] 2 x MVO (20 th Century Fox, Фортуна фильм) + AVO (Михалев) + Original + Subs (3 x Rus, Eng)

Reply to topic
 
Author
Message

Delia ®

Gender:

Longevity: 10 years

Posts: 1821

Торрент-статистика

Post 04-Aug-2012 12:30

[Quote]

Когда Гарри встретил Салли / When Harry Met Sally...«Can men and women be friends or does always sex get in the way?»--
Год выпуска: 1989
Страна: США
Жанр: драма, мелодрама, комедия, ...
Продолжительность: 01:35:31
Перевод: Профессиональный (многоголосый закадровый)
Субтитры: Russian (3 v) ,english (srt)
Режиссер: Роб Райнер
Сценарий: Нора Эфрон
Продюсер: Роб Райнер, Эндрю Шайнмен, Нора Эфрон, ...- В ролях: Билли Кристал (Billy Crystal), Мег Райан (Meg Ryan), Кэрри Фишер (Carrie Fisher), Бруно Кёрби (Bruno Kirby), Стивен Форд (Steven Ford), Лиза Джейн Перски (Lisa Jane Persky), Мишель Никастро (Michelle Nicastro), Гретхен Палмер (Gretchen Palmer), Роберт Алан Бойт (Robert Alan Beuth), Дэвид Бёрдик (David Burdick), Джо Вивиани (Joe Viviani), Харли Джейн Козак (Harley Jane Kozak), Джозеф Хант (Joseph Hunt), Кевин Руни (Kevin Rooney), Фрэнк Луз (Franc Luz), Трэйси Рейнер (Tracy Reiner), Кайл Т. Хеффнер (Kyle T. Heffner), Кимберли Ламарк (Kimberley LaMarque), Стэйси Кацин (Stacey Katzin), Эстелл Райнер (Estelle Reiner)
Описание: Гарри и Салли знакомы со времен сотворения мира. Они вместе учились, приходят друг другу на выручку в любых жизненных передрягах, помогают в поисках близкого человека. Даже когда они теряют друг друга из виду, судьба сводит их снова и снова. Они лучшие друзья уже тысячу лет. Но их дружба постоянно находится под угрозой. Обоих настойчиво мучает вопрос: не следует ли им стать больше, чем друзьями?Могут ли мужчина и женщина дружить по-настоящему? Или такая дружба неминуемо рано или поздно заканчивается более тесными отношениями?-Рейтинг MPAA: --Релиз группы:
--Качество: BDRip1080p
Формат: MKV
Видео кодек: H.264 (AVC)
Аудио кодеk: AC3
Видео: 1920x1040 (16:9), 23.976 fps, AVC, 11.3 Mbps
Аудио: AC3, 448 Kbps, 48.0 KHz, 6 ch ( mvo. 20th century fox )
Аудио #2: AC3, 192 Kbps, 48.0 KHz, 2 ch ( Фортуна фильм )

Отдельно на народ.ру:
AC3, 192 Kbps, 48.0 KHz, 2 ch. AV. А.Михалев
AC3, 448 Kbps, 48.0 KHz, 6 ch Eng

МедиаИнфо

Код:
General
Complete name                    : Kogda.Garri.vstretil.Salli.1989.BDRip-F.HD.mkv
Format                           : Matroska
File size                        : 7.95 GiB
Duration                         : 1h 35mn
Overall bit rate                 : 11.9 Mbps
Encoded date                     : UTC 2012-08-04 07:29:08
Writing application              : mkvmerge v5.7.0 ('The Whirlwind') built on Jul  8 2012 20:08:51
Writing library                  : libebml v1.2.3 + libmatroska v1.3.0
Video
ID                               : 1
Format                           : AVC
Format/Info                      : Advanced Video Codec
Format profile                   : [email protected]
Format settings, CABAC           : Yes
Format settings, ReFrames        : 4 frames
Muxing mode                      : Container [email protected]
Codec ID                         : V_MPEG4/ISO/AVC
Duration                         : 1h 35mn
Bit rate                         : 11.3 Mbps
Width                            : 1 920 pixels
Height                           : 1 040 pixels
Display aspect ratio             : 16:9
Frame rate                       : 23.976 fps
Color space                      : YUV
Chroma subsampling               : 4:2:0
Bit depth                        : 8 bits
Scan type                        : Progressive
Bits/(Pixel*Frame)               : 0.236
Stream size                      : 7.36 GiB (93%)
Writing library                  : x264 core 125 r2200 999b753
Encoding settings                : cabac=1 / ref=4 / deblock=1:-3:-3 / analyse=0x3:0x113 / me=umh / subme=10 / psy=1 / psy_rd=1.00:0.20 / mixed_ref=1 / me_range=32 / chroma_me=1 / trellis=2 / 8x8dct=1 / cqm=0 / deadzone=21,11 / fast_pskip=0 / chroma_qp_offset=1 / threads=6 / lookahead_threads=1 / sliced_threads=0 / nr=0 / decimate=1 / interlaced=0 / bluray_compat=0 / constrained_intra=0 / bframes=7 / b_pyramid=2 / b_adapt=2 / b_bias=0 / direct=3 / weightb=1 / open_gop=0 / weightp=2 / keyint=240 / keyint_min=23 / scenecut=40 / intra_refresh=0 / rc=2pass / mbtree=0 / bitrate=11275 / ratetol=1.0 / qcomp=0.80 / qpmin=10 / qpmax=51 / qpstep=4 / cplxblur=20.0 / qblur=0.5 / ip_ratio=1.40 / pb_ratio=1.30 / aq=2:0.80
Color primaries                  : BT.709-5, BT.1361, IEC 61966-2-4, SMPTE RP177
Transfer characteristics         : BT.709-5, BT.1361
Matrix coefficients              : BT.709-5, BT.1361, IEC 61966-2-4 709, SMPTE RP177
Audio #1
ID                               : 2
Format                           : AC-3
Format/Info                      : Audio Coding 3
Mode extension                   : CM (complete main)
Codec ID                         : A_AC3
Duration                         : 1h 35mn
Bit rate mode                    : Constant
Bit rate                         : 448 Kbps
Channel(s)                       : 6 channels
Channel positions                : Front: L C R, Side: L R, LFE
Sampling rate                    : 48.0 KHz
Bit depth                        : 16 bits
Stream size                      : 306 MiB (4%)
Title                            : 20 th Century Fox
Language                         : Russian
Audio #2
ID                               : 3
Format                           : AC-3
Format/Info                      : Audio Coding 3
Mode extension                   : CM (complete main)
Codec ID                         : A_AC3
Duration                         : 1h 35mn
Bit rate mode                    : Constant
Bit rate                         : 192 Kbps
Channel(s)                       : 2 channels
Channel positions                : Front: L R
Sampling rate                    : 48.0 KHz
Bit depth                        : 16 bits
Stream size                      : 131 MiB (2%)
Title                            : Фортуна
Language                         : Russian
Text #1
ID                               : 4
Format                           : UTF-8
Codec ID                         : S_TEXT/UTF8
Codec ID/Info                    : UTF-8 Plain Text
Title                            : BD
Language                         : Russian
Text #2
ID                               : 5
Format                           : UTF-8
Codec ID                         : S_TEXT/UTF8
Codec ID/Info                    : UTF-8 Plain Text
Title                            : R-5
Language                         : Russian
Text #3
ID                               : 6
Format                           : UTF-8
Codec ID                         : S_TEXT/UTF8
Codec ID/Info                    : UTF-8 Plain Text
Title                            : "Авторские Саша Drov"
Language                         : Russian
Text #4
ID                               : 7
Format                           : UTF-8
Codec ID                         : S_TEXT/UTF8
Codec ID/Info                    : UTF-8 Plain Text

Знаете ли Вы, что...

» Истории знакомств, которые периодически рассказывают супружеские пары, настоящие. Их Роб Райнер собирал специально для фильма. Мужей и жен, правда, играют актеры.
» Женщина, которая после сцены «симуляции оргазма» говорит: «Мне то же, что и ей», мама Роба Райнера.
» До того, как называть картину «Когда Гарри встретил Салли», Роб Райнер и Нора Эфрон рассмотрели следующие варианты: «Просто друзья», «Парень встречает девушку», «Голубая луна», «Слова любви», «Гарри, это Салли», «Как они встретились», «Это должен быть ты», «Игра меланхоличного ребенка». Нора Эфрон призналась потом, что выбранное название ленты ей не нравится, и она с удовольствием вернула бы все назад, чтобы поменять его.
» Голос за кадром, который говорит в финальной сцене: «До Нового года остается 10 секунд», принадлежит режиссеру фильма.
» Персонаж Гарри частично основан на характере Роба Райнера. А привычка Салли заказывать странно еду была позаимствована у сценариста Норы Эфрон.
» Молли Рингуолд была предложена роль Салли, но она была вынуждена отказаться от нее из-за плотного съемочного графика. В 2004 году Рингуолд сыграла Салли в Вест-Энде.
» Американский институт кино поставил «Когда Гарри встретил Салли» на шестое место в десятке лучших романтических комедий.
» Когда Гарри и Салли разговаривают по телефону, Гарри читает «Мизери» Стивена Кинга. В следующем году Роб Райнер снял экранизацию этого романа.
» Альберт Брукс отказался от роли Гарри Бернса.
» В финале первоначального варианта сценария Гарри и Салли не оставались вместе.
» Песня It Had To Be You звучала в «Касабланке» (1942), которую герои смотрят и обсуждают.
» В фильме также сыграла Трэйси Райнер, дочь режиссера Пенни Маршалл, которая взяла фамилию своего отчима – Роба Райнера.


Скриншоты

     
     

_________________
Человек – это канат, натянутый между животным и сверхчеловеком, – канат над пропастью.
В человеке ценно то, что он мост, а не цель. Фридрих Ницше
Other forum [Profile] [PM]
Similar theme
Forum Topic Author Torrent Replies Last Post
./templates/default/images/folder_dl.gif Современная проза, классика, поэзия Чейз Джеймс Хедли - Ты никогда не знал женщин. Ожерелье Эомальди. Банка с червями [Николай Козий, 2008, 80 kbps, MP3] Omen
1 | 0

0 | 694

0

2016-11-25 01:00
Omen Latest
Display posts from previous:    
Reply to topic

The time now is: Today 10:48

All times are GMT + 3 Hours



You cannot post new topics in this forum
You cannot reply to topics in this forum
You cannot edit your posts in this forum
You cannot delete your posts in this forum
You cannot vote in polls in this forum
You cannot attach files in this forum
You cannot download files in this forum