Today is a free download without charge Download

По ту сторону души / Sensored (Райан Тодд / Ryan Todd) [2009, США, ужасы, триллер, драма, BDRip] DVO НТВ+ Original Eng

Reply to topic
 
Author
Message

Delia ®

Gender:

Longevity: 11 years

Posts: 1821

Торрент-статистика

Post 03-Aug-2012 20:39

[Quote]

По ту сторону души / Sensored«Words from your mouth are not lies if you believe them.»--
Год выпуска: 2009
Страна: США
Жанр: ужасы, триллер, драма, ...
Продолжительность: 01:29:35
Перевод: Профессиональный (двухголосый закадровый) НТВ+
Режиссер: Райан Тодд
Сценарий: Кевин Хэскин
Продюсер: Эрик Мансур, Джо Хэскин, Кевин Хэскин, ...
Оператор: Брайан Хэмм
Композитор: Alexis Grapsas
Художник: Тоби Аннис, Шон Тернер, Моника Гартнер, ...
Монтаж: Брайан Хэмм, Райан Тодд- В ролях: Роберт Пикардо (Robert Picardo), Сара Нолтон (Sarah Knowlton), Brian Rife, Мишель Пейдж (Michelle Page), Дэвид Файн (David Fine), Чейз Энтони Ходж (Chase Anthony Hodge), Кристофер Майкл Холли (Christopher Michael Holley), Мэри Маккей (Mary Mackey), Мэтт Томпсон (Matt Thompson), Майкл Миэн (Michael Meehan), Пэрис Харвэлл (Paris Harwell), Анджелика Лоу (Angelica Lowe), Пэтти Грэй (Patty Gray), Шила Эллис (Sheila Ellis), Julianne Gabert, Лесли Гудман (Leslie Goodman), Dwight Taylor
Описание: Уэйд Миксон — немолодой одинокий человек, бывший работник крематория. Его любимое занятие — делать иллюстрации к детским книгам. Но это видимая часть его жизни. На самом деле Уэйд — изощрённый садист. В его подвале оборудована камера пыток, и он получает наслаждение, издеваясь над людьми, которых заманивает в свой дом...-Премьера (мир): 6 апреля 2010, ...--Релиз группы:
--Качество: BDRip
Формат: MKV
Видео кодек: H.264 (AVC)
Аудио кодеk: AC3
Видео: 1280x544 (2.35:1), 23.976 fps, AVC, 2 670 Kbps
Аудио: AC3, 448 Kbps, 48.0 KHz, 2 ch
Аудио #2: AC3, 384 Kbps, 48.0 KHz, 6 ch

МедиаИнфо

Код:
General
Complete name                    : Sensored (2009)BDRip.mkv
Format                           : Matroska
File size                        : 2.19 GiB
Duration                         : 1h 29mn
Overall bit rate                 : 3 503 Kbps
Encoded date                     : UTC 2012-08-03 15:49:20
Writing application              : mkvmerge v5.7.0 ('The Whirlwind') built on Jul  8 2012 20:08:51
Writing library                  : libebml v1.2.3 + libmatroska v1.3.0
Video
ID                               : 1
Format                           : AVC
Format/Info                      : Advanced Video Codec
Format profile                   : [email protected]
Format settings, CABAC           : Yes
Format settings, ReFrames        : 8 frames
Format settings, GOP             : M=8, N=20
Muxing mode                      : Container [email protected]
Codec ID                         : V_MPEG4/ISO/AVC
Duration                         : 1h 29mn
Bit rate                         : 2 670 Kbps
Width                            : 1 280 pixels
Height                           : 544 pixels
Display aspect ratio             : 2.35:1
Frame rate                       : 23.976 fps
Color space                      : YUV
Chroma subsampling               : 4:2:0
Bit depth                        : 8 bits
Scan type                        : Progressive
Bits/(Pixel*Frame)               : 0.160
Stream size                      : 1.63 GiB (74%)
Writing library                  : x264 core 125 r2200 999b753
Encoding settings                : cabac=1 / ref=8 / deblock=1:-1:-1 / analyse=0x3:0x133 / me=umh / subme=10 / psy=1 / psy_rd=1.00:0.10 / mixed_ref=1 / me_range=32 / chroma_me=1 / trellis=2 / 8x8dct=1 / cqm=0 / deadzone=21,11 / fast_pskip=0 / chroma_qp_offset=1 / threads=6 / lookahead_threads=1 / sliced_threads=0 / nr=0 / decimate=1 / interlaced=0 / bluray_compat=0 / constrained_intra=0 / bframes=7 / b_pyramid=2 / b_adapt=2 / b_bias=0 / direct=3 / weightb=1 / open_gop=0 / weightp=2 / keyint=240 / keyint_min=23 / scenecut=40 / intra_refresh=0 / rc=2pass / mbtree=0 / bitrate=2670 / ratetol=1.0 / qcomp=0.70 / qpmin=10 / qpmax=51 / qpstep=4 / cplxblur=20.0 / qblur=0.5 / ip_ratio=1.40 / pb_ratio=1.30 / aq=2:0.80
Color primaries                  : BT.709-5, BT.1361, IEC 61966-2-4, SMPTE RP177
Transfer characteristics         : BT.709-5, BT.1361
Matrix coefficients              : BT.709-5, BT.1361, IEC 61966-2-4 709, SMPTE RP177
Audio #1
ID                               : 2
Format                           : AC-3
Format/Info                      : Audio Coding 3
Mode extension                   : CM (complete main)
Codec ID                         : A_AC3
Duration                         : 1h 29mn
Bit rate mode                    : Constant
Bit rate                         : 448 Kbps
Channel(s)                       : 2 channels
Channel positions                : Front: L R
Sampling rate                    : 48.0 KHz
Bit depth                        : 16 bits
Stream size                      : 287 MiB (13%)
Language                         : Russian
Audio #2
ID                               : 3
Format                           : AC-3
Format/Info                      : Audio Coding 3
Mode extension                   : CM (complete main)
Codec ID                         : A_AC3
Duration                         : 1h 29mn
Bit rate mode                    : Constant
Bit rate                         : 384 Kbps
Channel(s)                       : 6 channels
Channel positions                : Front: L C R, Side: L R, LFE
Sampling rate                    : 48.0 KHz
Bit depth                        : 16 bits
Stream size                      : 246 MiB (11%)
Menu
00:00:00.000                     : en:Chapter 01
00:05:00.000                     : en:Chapter 02
00:10:00.000                     : en:Chapter 03
00:15:00.000                     : en:Chapter 04
00:20:00.000                     : en:Chapter 05
00:25:00.000                     : en:Chapter 06
00:30:00.000                     : en:Chapter 07
00:35:00.000                     : en:Chapter 08
00:40:00.000                     : en:Chapter 09
00:45:00.000                     : en:Chapter 10
00:50:00.000                     : en:Chapter 11
00:55:00.000                     : en:Chapter 12
01:00:00.000                     : en:Chapter 13
01:05:00.000                     : en:Chapter 14
01:10:00.000                     : en:Chapter 15
01:15:00.000                     : en:Chapter 16
01:20:00.000                     : en:Chapter 17
01:25:00.000                     : en:Chapter 18


Скриншоты

   [  
     

_________________
Человек – это канат, натянутый между животным и сверхчеловеком, – канат над пропастью.
В человеке ценно то, что он мост, а не цель. Фридрих Ницше
Other forum [Profile] [PM]
Display posts from previous:    
Reply to topic

The time now is: Today 11:25

All times are GMT + 3 Hours



You cannot post new topics in this forum
You cannot reply to topics in this forum
You cannot edit your posts in this forum
You cannot delete your posts in this forum
You cannot vote in polls in this forum
You cannot attach files in this forum
You cannot download files in this forum