Today is a free download without charge Download

Чемпионы: Быстрее. Выше. Сильнее (Артем Аксененко) [2016, Россия, спорт, драма,биография, WEB-DL 1080p]

Reply to topic
 
Author
Message

Omen ®

Longevity: 8 years 10 months

Posts: 181086

Торрент-статистика

Post 21-Mar-2016 09:03

[Quote]

-Чемпионы: Быстрее. Выше. Сильнее«9 ОЛИМПИЙСКИХ ПОБЕД НА ТРОИХ» -Страна: Россия
Жанр: спорт, драма, биография
Год выпуска: 2016
Продолжительность: 01:43:45-Перевод: Не требуется
Cубтитры: нет
Оригинальная аудиодорожка: русский-Режиссёр: Артем Аксененко-В ролях: Сергей Бондарчук, Евгений Пронин, Кристина Асмус, Егор Корешков, Александр Робак, Дарья Екамасова, Сергей Сосновский, Виктор Хориняк, Джемал Тетруашвили, Кристина Шаповалова-Описание: В мире их называли «Асфальтоукладчик», «Королева брусьев» и «Русская торпеда». Борец Александр Карелин, гимнастка Светлана Хоркина и пловец Александр Попов — реальные истории трех легендарных российских спортсменов, на общем счету которых 9 золотых олимпийских медалей и больше тысячи побед! У каждого был свой путь, своя уникальная драматическая история восхождения. Три яркие новеллы, основанные на реальных событиях, расскажут о том, что осталось за кадром спортивной хроники и каким был путь к высшему спортивному достижению — Олимпийский чемпион. Они стали легендами мирового спорта и дали возможность всей стране сказать «Мы победили!».- -Качество видео: WEB-DL 1080p
Формат видео: MKV
Видео: H.264 1912x816 (2.35:1), 24.000 fps, 4 312 Kbps, 0.115 Bits/(Pixel*Frame)
Аудио: AC3 48 kHz, AC3 Dolby Digital, 3/2 (L,C,R,l,r) + LFE ch, ~384 kbps [iTunes]-

MediaInfo

General
Unique ID : 175934480477481651444754413301183636034 (0x845BBF987701F619A881F245BA316242)
Complete name : D:\Фильмы\Chemp1oH1.Bystree.Vishe.S1LHee.2016.O.WEB-DL.1080p.mkv
Format : Matroska
Format version : Version 4 / Version 2
File size : 3.47 GiB
Duration : 1h 43mn
Overall bit rate : 4 792 Kbps
Encoded date : UTC 2016-03-17 18:08:43
Writing application : mkvmerge v8.3.0 ('Over the Horizon') 64bit
Writing library : libebml v1.3.1 + libmatroska v1.4.2
Video
ID : 1
Format : AVC
Format/Info : Advanced Video Codec
Format profile : [email protected]
Format settings, CABAC : Yes
Format settings, ReFrames : 5 frames
Codec ID : V_MPEG4/ISO/AVC
Duration : 1h 43mn
Bit rate : 4 406 Kbps
Width : 1 912 pixels
Height : 816 pixels
Display aspect ratio : 2.35:1
Frame rate mode : Constant
Frame rate : 24.000 fps
Color space : YUV
Chroma subsampling : 4:2:0
Bit depth : 8 bits
Scan type : Progressive
Bits/(Pixel*Frame) : 0.118
Stream size : 3.19 GiB (92%)
Language : English
Default : Yes
Forced : No
Color range : Limited
Color primaries : BT.709
Transfer characteristics : BT.709
Matrix coefficients : BT.709
Audio
ID : 2
Format : AC-3
Format/Info : Audio Coding 3
Mode extension : CM (complete main)
Format settings, Endianness : Big
Codec ID : A_AC3
Duration : 1h 43mn
Bit rate mode : Constant
Bit rate : 384 Kbps
Channel(s) : 6 channels
Channel positions : Front: L C R, Side: L R, LFE
Sampling rate : 48.0 KHz
Frame rate : 31.250 fps (1536 spf)
Compression mode : Lossy
Stream size : 285 MiB (8%)
Language : Russian
Default : Yes
Forced : No
Menu
00:00:00.000 : en:1
00:10:45.000 : en:2
00:19:41.000 : en:3
00:29:17.000 : en:4
00:39:54.000 : en:5
00:50:04.000 : en:6
01:00:10.000 : en:7
01:09:03.000 : en:8
01:17:32.000 : en:9
01:27:19.000 : en:10
01:38:58.000 : en:11
-

Скриншот с названием фильма

-
Other forum [Profile] [PM]
Display posts from previous:    
Reply to topic

The time now is: Today 23:01

All times are GMT + 3 Hours



You cannot post new topics in this forum
You cannot reply to topics in this forum
You cannot edit your posts in this forum
You cannot delete your posts in this forum
You cannot vote in polls in this forum
You cannot attach files in this forum
You cannot download files in this forum